<?xml version="1.0" standalone="no"?>
<!DOCTYPE svg PUBLIC "-//W3C//DTD SVG 1.1//EN" "http://www.w3.org/Graphics/SVG/1.1/DTD/svg11.dtd" >
<svg>
<metadata>
Created by FontForge 20090914 at Tue Mar 15 11:14:50 2016
 By www-data
(c) 2000 Borna Rayaneh
</metadata>
<defs>
<font id="BMitra" horiz-adv-x="0" >
  <font-face 
    font-family="B Mitra"
    font-weight="400"
    font-stretch="normal"
    units-per-em="2048"
    panose-1="0 0 4 0 0 0 0 0 0 0"
    ascent="1638"
    descent="-410"
    bbox="-218 -933 2006 1884"
    underline-thickness="60"
    underline-position="-670"
    unicode-range="U+0020-U+FEFC"
  />
<missing-glyph horiz-adv-x="1024" 
d="M128 0v1360h768v-1360h-768zM256 128h512v1104h-512v-1104z" />
    <glyph glyph-name="uE818" unicode="&#x651;&#x64b;" 
d="M365 1400c0 -85.333 -25.998 -127.999 -77.998 -127.999c-32.667 0 -53.334 19.333 -62.001 58c-14.667 -67.333 -45 -101 -91 -101c-37.333 0 -61 20.667 -71 62c-4.66699 19.333 -6.66699 55.333 -6 108c6 2 22 8.66699 48 20c3.33301 -74.667 14.666 -112 33.999 -112
c24 0 39.333 18.667 46 56c2 25.333 3.66699 50.666 5 75.999l50 14c4.66699 -67.333 18 -101 40 -101c18 0 28.333 15 31 45c0 7.33301 -0.666992 35.666 -2 84.999l47 15c6 -43.333 9 -75.666 9 -96.999zM346.002 1802l-312 -125v79l312 128v-82zM346.002 1637l-312 -125
v80l312 127v-82z" />
    <glyph glyph-name="uFC5E" unicode="&#x651;&#x64c;" arabic-form="isolated" 
d="M395 1363c0 -85.333 -25.998 -127.999 -77.998 -127.999c-32.667 0 -53.334 19.333 -62.001 58c-14.667 -67.333 -45 -101 -91 -101c-37.333 0 -61 20.667 -71 62c-4.66699 19.333 -6.66699 55.333 -6 108c6 2 22 8.66699 48 20c3.33301 -74.667 14.666 -112 33.999 -112
c24 0 39.333 18.667 46 56c2 25.333 3.66699 50.666 5 75.999l50 14c4.66699 -67.333 18 -101 40 -101c18 0 28.333 15 31 45c0 7.33301 -0.666992 35.666 -2 84.999l47 15c6 -43.333 9 -75.666 9 -96.999zM366.002 1642c1.33301 -8 2 -15.6699 2 -23.0029
c0 -16 -2.66699 -31.667 -8 -47c-14 5.33301 -35 12 -63 20c-24 -93.333 -80.667 -157.666 -170 -192.999c-2 10 -2 34.667 0 74c1.33301 32.667 -2 57 -10 73c-12.667 -8.66699 -34.334 -22 -65.001 -40l-6 88l85 44c19.333 -23.333 29 -67.333 29 -132
c32.667 10.667 63.667 45 93 103c-75.333 38.667 -113 67 -113 85c0 34.667 12.667 69.334 38 104.001c26.667 38 56.667 57 90 57c42 0 63 -33 63 -99c0 -27.333 -4 -59.666 -12 -96.999c4.66699 -1.33301 20.334 -7 47.001 -17zM283.002 1746
c0 32.667 -10.667 48.999 -32 48.999c-22.667 0 -41.667 -21.667 -57 -65c13.333 -12.667 38.333 -31 75 -55c9.33301 22.667 14 46.334 14 71.001z" />
    <glyph glyph-name="uFC5F" unicode="&#x651;&#x64d;" arabic-form="isolated" 
d="M385 1739c0 -85.333 -25.998 -127.999 -77.998 -127.999c-32.667 0 -53.334 19.333 -62.001 58c-14.667 -67.333 -45 -101 -91 -101c-37.333 0 -61 20.667 -71 62c-4.66699 19.333 -6.66699 55.333 -6 108c6 2 22 8.66699 48 20c3.33301 -74.667 14.666 -112 33.999 -112
c24 0 39.333 18.667 46 56c2 25.333 3.66699 50.666 5 75.999l50 14c4.66699 -67.333 18 -101 40 -101c18 0 28.333 15 31 45c0 7.33301 -0.666992 35.666 -2 84.999l47 15c6 -43.333 9 -75.666 9 -96.999zM406.002 1507l-313 -125v79l313 128v-82zM406.002 1342l-313 -125
v79l313 128v-82z" />
    <glyph glyph-name="uFC60" unicode="&#x651;&#x64e;" arabic-form="isolated" 
d="M375 1372c0 -85.333 -25.998 -127.999 -77.998 -127.999c-32.667 0 -53.334 19.333 -62.001 58c-14.667 -67.333 -45 -101 -91 -101c-37.333 0 -61 20.667 -71 62c-4.66699 19.333 -6.66699 55.333 -6 108c6 2 22 8.66699 48 20c3.33301 -74.667 14.666 -112 33.999 -112
c24 0 39.333 18.667 46 56c2 25.333 3.66699 50.666 5 75.999l50 14c4.66699 -67.333 18 -101 40 -101c18 0 28.333 15 31 45c0 7.33301 -0.666992 35.666 -2 84.999l47 15c6 -43.333 9 -75.666 9 -96.999zM353.002 1551l-312 -125v79l312 128v-82z" />
    <glyph glyph-name="uFC61" unicode="&#x651;&#x64f;" arabic-form="isolated" 
d="M404 1362c0 -85.333 -25.998 -127.999 -77.998 -127.999c-32.667 0 -53.334 19.333 -62.001 58c-14.667 -67.333 -45 -101 -91 -101c-37.333 0 -61 20.667 -71 62c-4.66699 19.333 -6.66699 55.333 -6 108c6 2 22 8.66699 48 20c3.33301 -74.667 14.666 -112 33.999 -112
c24 0 39.333 18.667 46 56c2 25.333 3.66699 50.666 5 75.999l50 14c4.66699 -67.333 18 -101 40 -101c18 0 28.333 15 31 45c0 7.33301 -0.666992 35.666 -2 84.999l47 15c6 -43.333 9 -75.666 9 -96.999zM401.002 1528c-12.667 4 -37.666 12.3301 -74.999 24.9971
c-34.667 -40 -63.334 -69 -86.001 -87c-40.667 -31.333 -90.334 -56.666 -149.001 -75.999v82c79.333 20 139 53.333 179 100c-72.667 38.667 -109 62.334 -109 71.001c0 32.667 15 69.334 45 110.001c33.333 45.333 69.333 68 108 68c20 0 36 -12.667 48 -38
c10 -20.667 15 -41.667 15 -63c0 -28.667 -7.66699 -62.667 -23 -102c14.667 -6.66699 30.334 -12 47.001 -16v-74zM325.003 1698c0 12.667 -4.33301 25.332 -13 37.999s-19 19 -31 19c-24 0 -46 -23.667 -66 -71c31.333 -25.333 63 -43.666 95 -54.999
c10 27.333 15 50.333 15 69z" />
    <glyph glyph-name="uFC62" unicode="&#x651;&#x650;" arabic-form="isolated" 
d="M375 1670c0 -85.333 -25.998 -127.999 -77.998 -127.999c-32.667 0 -53.334 19.333 -62.001 58c-14.667 -67.333 -45 -101 -91 -101c-37.333 0 -61 20.667 -71 62c-4.66699 19.333 -6.66699 55.333 -6 108c6 2 22 8.66699 48 20c3.33301 -74.667 14.666 -112 33.999 -112
c24 0 39.333 18.667 46 56c2 25.333 3.66699 50.666 5 75.999l50 14c4.66699 -67.333 18 -101 40 -101c18 0 28.333 15 31 45c0 7.33301 -0.666992 35.666 -2 84.999l47 15c6 -43.333 9 -75.666 9 -96.999zM396.002 1423l-313 -125v79l313 128v-82z" />
    <glyph glyph-name="uFDF2" unicode="&#xfedf;&#xfee0;&#xfeea;" horiz-adv-x="1355" arabic-form="isolated" 
d="M1041 1098c-7.33301 -18 -22.667 -36.667 -46 -56c-9.33301 64 -26.333 115.667 -51 155c16 9.33301 39.667 26.333 71 51c17.333 -55.333 26 -105.333 26 -150zM1165 1069c2 -16.667 3 -34.332 3 -52.999c0 -92.667 -27.667 -139 -83 -139c-32 0 -55.333 9.66699 -70 29
l-29 -42c-16 -16 -38.333 -24 -67 -24c-40.667 0 -61 32.667 -61 98c0 18 1.66699 38 5 60h46c0 -50 9.33301 -75 28 -75c32 0 53 27.667 63 83l48 4c2 -36.667 11.333 -54.334 28 -53.001c22.667 1.33301 34 30.333 34 87zM1354 236.002
c0 -45.333 -19 -92.335 -57 -141.002c-45.333 -57.333 -99.333 -86 -162 -86c-75.333 0 -127.333 41.333 -156 124c-78.667 -104.667 -165 -157 -259 -157c-70.667 0 -123 34.333 -157 103c-25.333 50.667 -37.333 107 -36 169c-46.667 -60 -81 -95.667 -103 -107
c-91.333 10 -153.666 19.667 -186.999 29c-56.667 16.667 -92.334 42 -107.001 76c0 10.667 8.66699 40.5 26 89.5s29 75.833 35 80.5c21.333 24.667 74 53.334 158 86.001c66 25.333 125.333 44.333 178 57l-2 91l97 104c4.66699 -22.667 5.33398 -80 2.00098 -172l-7 -198
c-6 -175.333 37.333 -263 130 -263c43.333 0 88 16.333 134 49c40 28.667 59.667 49.667 59 63l-25 455l90 109c2.66699 -81.333 11 -237.333 25 -468c2.66699 -41.333 13.334 -79.333 32.001 -114c23.333 -42.667 53.666 -64 90.999 -64c19.333 0 43.666 7.33301 72.999 22
c33.333 16.667 49 33.667 47 51c-8 70 -30.333 251.333 -67 544c18 24.667 49 63.334 93 116.001c36.667 -372.667 55 -588.667 55 -648zM524.999 277c2 12.667 2.99902 31.332 2.99902 55.999c0 32 -1.66699 73.667 -5 125
c-47.333 -5.33301 -94.666 -17.666 -141.999 -36.999c-64 -26 -108 -59 -132 -99c34 -30.667 109.667 -46 227 -46c16 0 32.333 0.333008 49 1z" />
    <glyph glyph-name="uFEF5" unicode="&#xfedf;&#xfe82;" horiz-adv-x="1131" arabic-form="isolated" 
d="M1124 945c0.666992 -7.33301 0.168945 -11.6689 -1.49805 -13.002s-3.16699 -2 -4.5 -2c-2.66699 0 -6 2 -10 6c-12 6 -29.667 14.333 -53 25c-4.66699 -48 -29.334 -157 -74.001 -327c-27.333 -104 -68 -208.667 -122 -314c33.333 -77.333 50 -133 50 -167
c0 -71.333 -8.66699 -113 -26 -125c-66 -18.667 -185.667 -28 -359 -28l30 145c42 18.667 85.333 48 130 88c37.333 32.667 63 60.334 77 83.001c-48.667 87.333 -119 181 -211 281c-37.333 40.667 -85.333 86.667 -144 138c-48 42 -73.667 63.667 -77 65
c-14.667 -18 -24.334 -27 -29.001 -27c-12 6.66699 -35.333 23.334 -70 50.001c-39.333 30.667 -63 51 -71 61c9.33301 84.667 21.333 148.334 36 191.001c304 -218.667 508.667 -445.334 614 -680.001c32.667 62.667 63.667 160 93 292c32 144 51.333 285.667 58 425
c20.667 12.667 65.667 42 135 88zM833.002 145.997c1.33301 40.667 -10.001 76 -34.001 106c-38.667 -48.667 -81 -88 -127 -118c64.667 0 118.334 4 161.001 12zM439.001 1328c0 -15.333 -22.665 -31.666 -67.998 -48.999c-35.333 -13.333 -65 -21 -89 -23
c-36 -2.66699 -67.667 -4.33398 -95 -5.00098c-5.33301 -8.66699 -11.333 -24.667 -18 -48c-4.66699 -16 -9.66699 -24 -15 -24c-28 0 -42 4.33301 -42 13c0 31.333 5 65.333 15 102c8.66699 33.333 20 50 34 50c9.33301 0 23.166 -2.16699 41.499 -6.5
s32.166 -6.5 41.499 -6.5c58.667 0 123 17.667 193 53c1.33301 -7.33301 2 -26 2 -56z" />
    <glyph glyph-name="uFEF6" unicode="&#xfee0;&#xfe82;" horiz-adv-x="1222" arabic-form="final" 
d="M1248 1l-61.0039 0.00390625c-76.667 0 -132 56.333 -166 169c-26.667 86.667 -40 200.667 -40 342c0 -0.666992 1.33301 87.666 4 264.999c-55.333 -234.667 -124 -412.667 -206 -534c-52.667 -78 -128 -149.667 -226 -215c-49.333 -12 -111 -22.333 -185 -31
c-33.333 -4 -120.666 -3.66699 -261.999 1c-9.33301 0 -14.666 1.33301 -15.999 4c0 11.333 32.667 27.666 98 48.999c116.667 38 183.334 60.333 200.001 67c126.667 49.333 219.334 99.666 278.001 150.999c-15.333 70 -26 113 -32 129
c-31.333 82.667 -88.333 176.334 -171 281.001c-7.33301 9.33301 -49 53 -125 131l-39 -24c-85.333 76 -128 120.333 -128 133c0 29.333 12.333 92.666 37 189.999c3.33301 12.667 12 13 26 1c93.333 -80 200.333 -197.333 321 -352c56.667 -73.333 98 -144.333 124 -213
c19.333 -51.333 36.333 -120.333 51 -207c94 140.667 176 392 246 754l84 109c2.66699 3.33301 6.66699 7.66602 12 12.999c2 -2 3 -9.33301 3 -22c1.33301 -104 7 -360 17 -768c4.66699 -189.333 40.667 -284 108 -284h48v-139zM438.996 1372
c0 -16 -22.665 -32.6709 -67.998 -50.0039c-36.667 -14 -66.667 -21.667 -90 -23c-20 -1.33301 -51.333 -2.66602 -94 -3.99902c-5.33301 -9.33301 -11.333 -25.666 -18 -48.999c-4.66699 -16 -9.66699 -24 -15 -24c-28 0 -42 4.33301 -42 13
c0 26.667 3.33301 55.334 10 86.001c9.33301 44 22.333 66 39 66c9.33301 0 23.166 -2.16699 41.499 -6.5s32.166 -6.5 41.499 -6.5c58.667 0 123 17.667 193 53c1.33301 -7.33301 2 -25.666 2 -54.999z" />
    <glyph glyph-name="uFEF7" unicode="&#xfedf;&#xfe84;" horiz-adv-x="1071" arabic-form="isolated" 
d="M1063 945c0.666992 -6.66699 0.333008 -11.002 -1 -13.002c-0.666992 -0.666992 -23.334 9 -68.001 29c-4 -46 -28.333 -155 -73 -327c-28 -108.667 -69 -213.334 -123 -314.001c32.667 -71.333 49 -127 49 -167c0 -72 -8.33301 -113.667 -25 -125
c-65.333 -18.667 -184.666 -28 -357.999 -28l29 145c42.667 18.667 86.334 48 131.001 88c37.333 32.667 62.666 60.334 75.999 83.001c-50 89.333 -120 183 -210 281c-34 36.667 -82.333 82.667 -145 138c-46.667 41.333 -72.334 63 -77.001 65
c-15.333 -18 -25 -27 -29 -27c-14.667 8.66699 -38 25.334 -70 50.001c-37.333 28.667 -60.666 49 -69.999 61c9.33301 88 20.666 151.667 33.999 191c303.333 -218 508.333 -444.667 615 -680c32.667 62 63.667 159.333 93 292c32 144.667 51.333 286.334 58 425.001
c20.667 12.667 65.667 42 135 88c4.66699 -36 14.334 -121 29.001 -255zM771.999 145.998c2 40 -9.33301 75.333 -34 106c-38.667 -48.667 -80.667 -88 -126 -118c64.667 0 118 4 160 12zM425.999 1374c1.33301 -6.66699 -1.83398 -22.166 -9.50098 -46.499
s-14.167 -36.833 -19.5 -37.5c-15.333 -2 -42.666 -7 -81.999 -15c-60 -14 -131.333 -46 -214 -96c0.666992 21.333 2 43.333 4 66c15.333 12 47.666 30 96.999 54c-53.333 26.667 -80 57.667 -80 93c0 28 20.5 60.833 61.5 98.5s75.833 56.5 104.5 56.5
c38 0 76.333 -18.333 115 -55l-59 -57c-25.333 22 -48 33 -68 33c-14.667 0 -31.667 -5.33301 -51 -16c-22.667 -12 -34 -24.333 -34 -37c0 -14.667 12.333 -30.834 37 -48.501s45 -26.5 61 -26.5c36.667 10 82.334 21.333 137.001 34z" />
    <glyph glyph-name="uFEF8" unicode="&#xfee0;&#xfe84;" horiz-adv-x="1222" arabic-form="final" 
d="M1248 1l-61.0039 0.00390625c-76.667 0 -132 56.333 -166 169c-26.667 86.667 -40 200.667 -40 342c0 -0.666992 1.33301 87.666 4 264.999c-55.333 -234.667 -124 -412.667 -206 -534c-52.667 -78 -128 -149.667 -226 -215c-49.333 -12 -111 -22.333 -185 -31
c-33.333 -4 -120.666 -3.66699 -261.999 1c-9.33301 0 -14.666 1.33301 -15.999 4c0 11.333 32.667 27.666 98 48.999c116.667 38 183.334 60.333 200.001 67c126.667 49.333 219.334 99.666 278.001 150.999c-15.333 70 -26 113 -32 129
c-31.333 82.667 -88.333 176.334 -171 281.001c-7.33301 9.33301 -49 53 -125 131l-39 -24c-85.333 76 -128 120.333 -128 133c0 29.333 12.333 92.666 37 189.999c3.33301 12.667 12 13 26 1c93.333 -80 200.333 -197.333 321 -352c56.667 -73.333 98 -144.333 124 -213
c19.333 -51.333 36.333 -120.333 51 -207c94 140.667 176 392 246 754l84 109c2.66699 3.33301 6.66699 7.66602 12 12.999c2 -2 3 -9.33301 3 -22c1.33301 -104 7 -360 17 -768c4.66699 -189.333 40.667 -284 108 -284h48v-139zM486.996 1392
c0.666992 -7.33301 -2.83105 -22.999 -10.498 -46.999s-13.834 -36.333 -18.501 -37l-82 -15c-68.667 -18.667 -140.334 -51 -215.001 -97c1.33301 22 3 43.667 5 65c16.667 14 49 32.333 97 55c-54 26.667 -81 57.667 -81 93c0 28 20.5 60.833 61.5 98.5
s75.833 56.5 104.5 56.5c39.333 0 78 -18 116 -54l-60 -58c-24.667 22.667 -47 34 -67 34c-14.667 0 -32 -5.33301 -52 -16c-22.667 -12 -34 -24.333 -34 -37c0 -14 13 -30.333 39 -49c24 -18 43.667 -27 59 -27c10.667 0 32.667 5.33301 66 16
c36.667 11.333 60.667 17.666 72 18.999z" />
    <glyph glyph-name="uFEF9" unicode="&#xfedf;&#xfe88;" horiz-adv-x="1071" arabic-form="isolated" 
d="M1063 945c0.666992 -6.66699 0.333008 -11.002 -1 -13.002c-0.666992 -0.666992 -23.334 9 -68.001 29c-4 -46 -28.333 -155 -73 -327c-28 -108.667 -69 -213.334 -123 -314.001c32.667 -71.333 49 -127 49 -167c0 -72 -8.33301 -113.667 -25 -125
c-65.333 -18.667 -184.666 -28 -357.999 -28l29 145c42.667 18.667 86.334 48 131.001 88c37.333 32.667 62.666 60.334 75.999 83.001c-50 89.333 -120 183 -210 281c-34 36.667 -82.333 82.667 -145 138c-46.667 41.333 -72.334 63 -77.001 65
c-15.333 -18 -25 -27 -29 -27c-14.667 8.66699 -38 25.334 -70 50.001c-37.333 28.667 -60.666 49 -69.999 61c9.33301 88 20.666 151.667 33.999 191c303.333 -218 508.333 -444.667 615 -680c32.667 62 63.667 159.333 93 292c32 144.667 51.333 286.334 58 425.001
c20.667 12.667 65.667 42 135 88c4.66699 -36 14.334 -121 29.001 -255zM771.999 145.998c2 40 -9.33301 75.333 -34 106c-38.667 -48.667 -80.667 -88 -126 -118c64.667 0 118 4 160 12zM620.999 -269.002c0.666992 -6.66699 -2.99805 -22.165 -10.998 -46.498
s-13.667 -36.833 -17 -37.5c-15.333 -2 -43 -7 -83 -15c-60.667 -14 -132.334 -46.333 -215.001 -97c1.33301 22 3 44.333 5 67c18 13.333 50.333 31.333 97 54c-53.333 26 -80 57 -80 93c0 28 20.5 60.833 61.5 98.5s75.833 56.5 104.5 56.5c38 0 76.333 -18.333 115 -55
l-60 -57c-24 22 -46.333 33 -67 33c-14.667 0 -32 -5.33301 -52 -16c-22.667 -12 -34 -24.333 -34 -37c0 -14.667 12.5 -30.834 37.5 -48.501s45.167 -26.5 60.5 -26.5c13.333 0 35.666 5 66.999 15c35.333 11.333 59 17.666 71 18.999z" />
    <glyph glyph-name="uFEFA" unicode="&#xfee0;&#xfe88;" horiz-adv-x="1222" arabic-form="final" 
d="M1248 1l-61.0039 0.00390625c-76.667 0 -132 56.333 -166 169c-26.667 86.667 -40 200.667 -40 342c0 -0.666992 1.33301 87.666 4 264.999c-55.333 -234.667 -124 -412.667 -206 -534c-52.667 -78 -128 -149.667 -226 -215c-49.333 -12 -111 -22.333 -185 -31
c-33.333 -4 -120.666 -3.66699 -261.999 1c-9.33301 0 -14.666 1.33301 -15.999 4c0 11.333 32.667 27.666 98 48.999c116.667 38 183.334 60.333 200.001 67c126.667 49.333 219.334 99.666 278.001 150.999c-15.333 70 -26 113 -32 129
c-31.333 82.667 -88.333 176.334 -171 281.001c-7.33301 9.33301 -49 53 -125 131l-39 -24c-85.333 76 -128 120.333 -128 133c0 29.333 12.333 92.666 37 189.999c3.33301 12.667 12 13 26 1c93.333 -80 200.333 -197.333 321 -352c56.667 -73.333 98 -144.333 124 -213
c19.333 -51.333 36.333 -120.333 51 -207c94 140.667 176 392 246 754l84 109c2.66699 3.33301 6.66699 7.66602 12 12.999c2 -2 3 -9.33301 3 -22c1.33301 -104 7 -360 17 -768c4.66699 -189.333 40.667 -284 108 -284h48v-139zM620.996 -268.996
c0.666992 -6.66699 -2.99805 -22.165 -10.998 -46.498s-13.667 -36.833 -17 -37.5c-15.333 -2 -43 -7 -83 -15c-60.667 -14 -132.334 -46.333 -215.001 -97c1.33301 22 3 44.333 5 67c18 13.333 50.333 31.333 97 54c-53.333 26 -80 57 -80 93c0 28 20.5 60.833 61.5 98.5
s75.833 56.5 104.5 56.5c38 0 76.333 -18.333 115 -55l-60 -57c-24 22 -46.333 33 -67 33c-14.667 0 -32 -5.33301 -52 -16c-22.667 -12 -34 -24.333 -34 -37c0 -14.667 12.5 -30.834 37.5 -48.501s45.167 -26.5 60.5 -26.5c13.333 0 35.666 5 66.999 15
c35.333 11.333 59 17.666 71 18.999z" />
    <glyph glyph-name="uFEFB" unicode="&#xfedf;&#xfe8e;" horiz-adv-x="1071" arabic-form="isolated" 
d="M1063 945c0.666992 -6.66699 0.333008 -11.002 -1 -13.002c-0.666992 -0.666992 -23.334 9 -68.001 29c-4 -46 -28.333 -155 -73 -327c-28 -108.667 -69 -213.334 -123 -314.001c32.667 -71.333 49 -127 49 -167c0 -72 -8.33301 -113.667 -25 -125
c-65.333 -18.667 -184.666 -28 -357.999 -28l29 145c42.667 18.667 86.334 48 131.001 88c37.333 32.667 62.666 60.334 75.999 83.001c-50 89.333 -120 183 -210 281c-34 36.667 -82.333 82.667 -145 138c-46.667 41.333 -72.334 63 -77.001 65
c-15.333 -18 -25 -27 -29 -27c-14.667 8.66699 -38 25.334 -70 50.001c-37.333 28.667 -60.666 49 -69.999 61c9.33301 88 20.666 151.667 33.999 191c303.333 -218 508.333 -444.667 615 -680c32.667 62 63.667 159.333 93 292c32 144.667 51.333 286.334 58 425.001
c20.667 12.667 65.667 42 135 88c4.66699 -36 14.334 -121 29.001 -255zM771.999 145.998c2 40 -9.33301 75.333 -34 106c-38.667 -48.667 -80.667 -88 -126 -118c64.667 0 118 4 160 12z" />
    <glyph glyph-name="uFEFC" unicode="&#xfee0;&#xfe8e;" horiz-adv-x="1222" arabic-form="final" 
d="M1248 1l-61.0039 0.00390625c-76.667 0 -132 56.333 -166 169c-26.667 86.667 -40 200.667 -40 342c0 -0.666992 1.33301 87.666 4 264.999c-55.333 -234.667 -124 -412.667 -206 -534c-52.667 -78 -128 -149.667 -226 -215c-49.333 -12 -111 -22.333 -185 -31
c-33.333 -4 -120.666 -3.66699 -261.999 1c-9.33301 0 -14.666 1.33301 -15.999 4c0 11.333 32.667 27.666 98 48.999c116.667 38 183.334 60.333 200.001 67c126.667 49.333 219.334 99.666 278.001 150.999c-15.333 70 -26 113 -32 129
c-31.333 82.667 -88.333 176.334 -171 281.001c-7.33301 9.33301 -49 53 -125 131l-39 -24c-85.333 76 -128 120.333 -128 133c0 29.333 12.333 92.666 37 189.999c3.33301 12.667 12 13 26 1c93.333 -80 200.333 -197.333 321 -352c56.667 -73.333 98 -144.333 124 -213
c19.333 -51.333 36.333 -120.333 51 -207c94 140.667 176 392 246 754l84 109c2.66699 3.33301 6.66699 7.66602 12 12.999c2 -2 3 -9.33301 3 -22c1.33301 -104 7 -360 17 -768c4.66699 -189.333 40.667 -284 108 -284h48v-139z" />
    <glyph glyph-name="u0652_u064E.liga" unicode="&#x652;&#x64e;" horiz-adv-x="1" 
d="M166 1261l-4 -302l-47 28l3 303z" />
    <glyph glyph-name="u0652_u064B.liga" unicode="&#x652;&#x64b;" horiz-adv-x="1" 
d="M487 837l-98 -102l-107 96l104 103zM265 828l-99 -101l-105 95l103 103z" />
    <glyph glyph-name="u0652_u064D.liga" unicode="&#x652;&#x64d;" horiz-adv-x="1" 
d="M713 -671l-98 -102l-107 96l104 103zM491 -680l-99 -101l-105 95l103 103z" />
    <glyph glyph-name="u0622" unicode="&#x622;" horiz-adv-x="394" arabic-form="isolated" 
d="M387 1381c0 -16 -22.665 -32.667 -67.998 -50c-36.667 -14 -66.667 -21.667 -90 -23c-34 -2 -65.333 -3.66699 -94 -5c-5.33301 -8.66699 -11.333 -24.667 -18 -48c-4.66699 -16 -10 -24 -16 -24c-27.333 0 -41 4.33301 -41 13c0 31.333 5 65.333 15 102
c8.66699 33.333 20 50 34 50c9.33301 0 23.166 -2.16699 41.499 -6.5s32.166 -6.5 41.499 -6.5c60 0 124 17.667 192 53c2 -8 3 -26.333 3 -55zM320.002 101c0 -10 -20 -46.002 -60 -108.002c-2.66699 -4 -7 -10 -13 -18c-2 2 -3 9.33301 -3 22
c0 185.333 -4.33301 393.333 -13 624c-2.66699 68.667 -13 172.334 -31 311.001c-17.333 133.333 -26 192.333 -26 177c12 15.333 45.333 53.333 100 114c6 6.66699 10 6.33398 12 -0.999023c22.667 -79.333 34 -216 34 -410v-711z" />
    <glyph glyph-name="u0623" unicode="&#x623;" horiz-adv-x="377" arabic-form="isolated" 
d="M353 1392c0.666992 -5.33301 -2.16797 -18.1689 -8.50098 -38.502s-11.5 -31.166 -15.5 -32.499c-12.667 -2 -36 -6.33301 -70 -13c-50 -11.333 -110 -38.333 -180 -81c0.666992 18 1.66699 36.667 3 56c16.667 11.333 44 26.333 82 45c-44.667 21.333 -67 47.333 -67 78
c0 24 17.167 51.833 51.5 83.5s63.5 47.5 87.5 47.5c32 0 64 -15.667 96 -47l-50 -48c-18.667 18.667 -37 28 -55 28c-13.333 0 -28 -4.33301 -44 -13c-18.667 -10 -28 -20.667 -28 -32s10.5 -24.666 31.5 -39.999s37.5 -23 49.5 -23c8 0 26.333 4.33301 55 13
c32.667 10 53.334 15.667 62.001 17zM319.998 100.997c0 -10 -20 -46.002 -60 -108.002c-2.66699 -4 -7 -10 -13 -18c-2 2 -3 9.33301 -3 22c0 185.333 -4.33301 393.333 -13 624c-2.66699 68.667 -13 172.334 -31 311.001c-17.333 133.333 -26 192.333 -26 177
c12 15.333 45.333 53.333 100 114c6 6.66699 10 6.33398 12 -0.999023c22.667 -79.333 34 -216 34 -410v-711z" />
    <glyph glyph-name="u0624" unicode="&#x624;" horiz-adv-x="637" arabic-form="isolated" 
d="M476 773c0.666992 -7.33301 -2.83301 -23 -10.5 -47s-13.834 -36.333 -18.501 -37c-34.667 -6.66699 -62.334 -11.667 -83.001 -15c-68 -18.667 -139.333 -51 -214 -97c0.666992 22 2.33398 44 5.00098 66c18 14 50 32 96 54c-53.333 26.667 -80 57.667 -80 93
c0 28 20.5 61 61.5 99s75.833 57 104.5 57c38.667 0 77 -18.333 115 -55l-59 -57c-25.333 22 -47.666 33 -66.999 33c-14.667 0 -32 -5.33301 -52 -16c-22.667 -12 -34 -24.333 -34 -37c0 -14.667 12.333 -31 37 -49s45 -27 61 -27c4.66699 1.33301 20 6 46 14
c32 10 62.667 17 92 21zM633 114c0 -116 -26.667 -227.333 -80 -334c-27.333 -54.667 -75.333 -122.667 -144 -204c-47.333 -56 -78.333 -84 -93 -84c-64.667 0 -130.667 18.667 -198 56c-16 8.66699 -24.333 14.667 -25 18c0 4 7.66699 9 23 15
c92 35.333 175.333 86 250 152c106 93.333 167 186.333 183 279c-34 -6.66699 -84.667 -10 -152 -10c-24 0 -53 4 -87 12c-42 10 -67.333 21.333 -76 34c-12.667 18.667 -17.667 63.667 -15 135c2.66699 76.667 30.667 148 84 214c46 57.333 85 86 117 86
c36.667 0 77 -25.667 121 -77c61.333 -72 92 -169.333 92 -292zM539 165c0 38.667 -14.333 76.333 -43 113c-30 40 -63.667 60 -101 60c-21.333 0 -40.333 -18.667 -57 -56c-14 -32 -21 -60.333 -21 -85c0 -38.667 31.667 -58 95 -58c54 0 96.333 8.66699 127 26z" />
    <glyph glyph-name="u0625" unicode="&#x625;" horiz-adv-x="382" arabic-form="isolated" 
d="M337 101c0 -12 -20 -48 -60 -108c-6 -11.333 -10 -17.333 -12 -18c-2.66699 2 -4 9.33301 -4 22c0 186 -4.33301 394 -13 624c-6 158.667 -18 290 -36 394c-3.33301 20.667 -9.33301 51.667 -18 93c-1.33301 5.33301 -2 5.66602 -2 0.999023c0 10.667 33 48.667 99 114
c6.66699 6.66699 10.667 6.33398 12 -0.999023c22.667 -77.333 34 -214 34 -410v-711zM408 -240c0 -6 -3.33105 -19.1689 -9.99805 -39.502s-11.667 -30.833 -15 -31.5c-12.667 -2 -36 -6.33301 -70 -13c-50 -11.333 -110 -38.333 -180 -81c0.666992 18 2 36.667 4 56
c16.667 12 44 27.333 82 46c-44.667 20.667 -67 46.334 -67 77.001c0 24 17.167 51.833 51.5 83.5s63.5 47.5 87.5 47.5c32 0 64 -15.333 96 -46l-50 -49c-18.667 18.667 -37 28 -55 28c-12.667 0 -27.334 -4.33301 -44.001 -13c-19.333 -10 -29 -20.667 -29 -32
s10.667 -24.666 32 -39.999s38 -23 50 -23c7.33301 0 25.666 4.33301 54.999 13c32 10 52.667 15.667 62 17z" />
    <glyph glyph-name="u0626" unicode="&#x626;" horiz-adv-x="1296" arabic-form="isolated" 
d="M1294 603c-31.333 -101.333 -48.6689 -152 -52.002 -152c-87.333 0 -142.333 -4.66699 -165 -14c-36.667 -15.333 -83 -54.666 -139 -117.999c-52 -59.333 -78 -97.333 -78 -114c0 -28.667 42.333 -55.334 127 -80.001c74.667 -21.333 120.334 -36.333 137.001 -45
c45.333 -22.667 68 -53.334 68 -92.001c0 -14 -7.5 -50 -22.5 -108s-25.5 -89.667 -31.5 -95c-22 -18 -96.667 -49 -224 -93c-167.333 -58 -310 -87 -428 -87c-96.667 0 -177.667 22.333 -243 67c-74.667 51.333 -112 123.333 -112 216c0 60 19 132.667 57 218
c9.33301 21.333 26.666 54.666 51.999 99.999c30.667 54.667 49.334 82 56.001 82c8 0 19.167 -3.66699 33.5 -11s21.5 -14.333 21.5 -21c0 14.667 -1.66699 22 -5 22c-8 0 -24.667 -36.333 -50 -109c-36.667 -105.333 -55 -172.333 -55 -201
c0 -75.333 29 -131.666 87 -168.999c48.667 -32 112.667 -48 192 -48c139.333 0 297.333 34.667 474 104c74.667 29.333 112 52 112 68s-34.333 34.667 -103 56c-92.667 28.667 -145.667 46.334 -159 53.001c-50.667 25.333 -76 52.666 -76 81.999
c0 36.667 18.333 95.334 55 176.001c102.667 226.667 228.334 340 377.001 340c68 0 99.333 -9 94 -27zM519.997 554c0.666992 -7.33301 -3.16895 -23.167 -11.502 -47.5s-13.833 -36.5 -16.5 -36.5c-28 -5.33301 -56 -10.333 -84 -15
c-68 -18.667 -139 -51.334 -213 -98.001c0 22 1 44.333 3 67c20.667 15.333 53 33.333 97 54c-52.667 26.667 -79 57.667 -79 93c0 28 20.5 60.833 61.5 98.5s75.833 56.5 104.5 56.5c38.667 0 76.667 -18.333 114 -55l-59 -57c-24 22 -46.333 33 -67 33
c-15.333 0 -32.666 -5 -51.999 -15c-22.667 -11.333 -34 -23.666 -34 -36.999c0 -14.667 13 -31.334 39 -50.001c24 -17.333 44 -26 60 -26c36.667 10.667 82.334 22.334 137.001 35.001z" />
    <glyph glyph-name="u0627" unicode="&#x627;" horiz-adv-x="283" arabic-form="isolated" 
d="M276 101c0 -17.333 -19.667 -53.332 -59 -107.999c-6 -11.333 -10.333 -17.333 -13 -18c-2.66699 2.66699 -4 10 -4 22c-1.33301 116 -4.33301 268.667 -9 458l-4 166c-2 70 -12 173.667 -30 311c-17.333 135.333 -26 194.333 -26 177c0 10 33.333 48 100 114
c6 6 10 5.66699 12 -1c22 -76.667 33 -213.334 33 -410.001v-711z" />
    <glyph glyph-name="u0628" unicode="&#x628;" horiz-adv-x="1309" arabic-form="isolated" 
d="M1308 294c0 -19.333 -9.50098 -52.332 -28.501 -98.999s-35.167 -75.334 -48.5 -86.001c-33.333 -25.333 -124 -51.666 -272 -78.999c-142 -26 -266 -39 -372 -39c-304 0 -456 86.333 -456 259c0 52 15.667 113.667 47 185c28.667 64.667 48.334 97 59.001 97
c4.66699 0 13 -3.66699 25 -11s18 -13 18 -17c0 8.66699 -1 13.334 -3 14.001c-4 0 -12.333 -21.333 -25 -64c-18.667 -62 -28 -103.333 -28 -124c0 -132.667 133 -199 399 -199c98 0 201.667 8 311 24c191.333 28 287 55 287 81c0 23.333 -24.333 76.666 -73 159.999
l76 134c6.66699 11.333 11 11.666 13 0.999023c47.333 -114.667 71 -193.667 71 -237zM795.999 -258.999l-102 -108l-116 100l108 112z" />
    <glyph glyph-name="u0629" unicode="&#x629;" horiz-adv-x="599" arabic-form="isolated" 
d="M598 244c0 -19.333 -8.83301 -50.668 -26.5 -94.001s-33.5 -72.333 -47.5 -87c-38 -41.333 -108.667 -62 -212 -62c-53.333 0 -96.333 14 -129 42c-34.667 29.333 -52 70 -52 122c0 44.667 19 111.334 57 200.001l105 242c203.333 -90.667 305 -211.667 305 -363z
M511 195.998c0 84.667 -67.999 165.333 -203.999 242c-53.333 -111.333 -80 -184 -80 -218c0 -24 13.333 -44.667 40 -62c23.333 -16 47.666 -24 72.999 -24c21.333 0 53.333 6 96 18c50 14 75 28.667 75 44zM467.001 858.997c1.33301 -7.33301 -2 -23.166 -10 -47.499
s-14.333 -36.5 -19 -36.5c-27.333 -5.33301 -54.666 -10.333 -81.999 -15c-68 -18.667 -139.333 -51 -214 -97c0.666992 21.333 2 43.333 4 66c20.667 15.333 53 33.666 97 54.999c-53.333 25.333 -80 56 -80 92c0 28 20.5 60.833 61.5 98.5s75.833 56.5 104.5 56.5
c39.333 0 77.666 -18 114.999 -54l-60 -57c-24.667 21.333 -47 32 -67 32c-14.667 0 -31.667 -5.33301 -51 -16c-22.667 -12 -34 -24.333 -34 -37c0 -14 13 -30.333 39 -49c24 -17.333 43.667 -26 59 -26c4.66699 2 20 6.66699 46 14c32 9.33301 62.333 16.333 91 21z" />
    <glyph glyph-name="u062A" unicode="&#x62a;" horiz-adv-x="1309" arabic-form="isolated" 
d="M880 718l-99 -102l-106 95l103 104zM658 708l-99 -100l-106 95l104 103zM1308 294c0 -19.333 -9.50098 -52.332 -28.501 -98.999s-35.167 -75.334 -48.5 -86.001c-33.333 -25.333 -124 -51.666 -272 -78.999c-142 -26 -266 -39 -372 -39c-304 0 -456 86.333 -456 259
c0 52 15.667 113.667 47 185c28.667 64.667 48.334 97 59.001 97c4.66699 0 13 -3.66699 25 -11s18 -13 18 -17c0 8.66699 -1 13.334 -3 14.001c-4 0 -12.333 -21.333 -25 -64c-18.667 -62 -28 -103.333 -28 -124c0 -132.667 133 -199 399 -199c98 0 201.667 8 311 24
c191.333 28 287 55 287 81c0 23.333 -24.333 76.666 -73 159.999l76 134c6.66699 11.333 11 11.666 13 0.999023c47.333 -114.667 71 -193.667 71 -237z" />
    <glyph glyph-name="u062B" unicode="&#x62b;" horiz-adv-x="1309" arabic-form="isolated" 
d="M804 767l-97 -90l-95 95l96 90zM911 586l-96 -90l-95 96l96 90zM696 588l-96 -90l-95 96l96 89zM1308 294c0 -19.333 -9.50098 -52.332 -28.501 -98.999s-35.167 -75.334 -48.5 -86.001c-33.333 -25.333 -124 -51.666 -272 -78.999c-142 -26 -266 -39 -372 -39
c-304 0 -456 86.333 -456 259c0 52 15.667 113.667 47 185c28.667 64.667 48.334 97 59.001 97c4.66699 0 13 -3.66699 25 -11s18 -13 18 -17c0 8.66699 -1 13.334 -3 14.001c-4 0 -12.333 -21.333 -25 -64c-18.667 -62 -28 -103.333 -28 -124c0 -132.667 133 -199 399 -199
c98 0 201.667 8 311 24c191.333 28 287 55 287 81c0 23.333 -24.333 76.666 -73 159.999l76 134c6.66699 11.333 11 11.666 13 0.999023c47.333 -114.667 71 -193.667 71 -237z" />
    <glyph glyph-name="u062C" unicode="&#x62c;" horiz-adv-x="947" arabic-form="isolated" 
d="M1004 -399c-38 -51.333 -60.001 -78.334 -66.001 -81.001c-56 -26.667 -148.667 -40 -278 -40c-138 0 -254.667 25.667 -350 77c-119.333 64 -179 159.333 -179 286c0 232.667 158 412.334 474 539.001c-136 45.333 -232 68 -288 68c-30.667 0 -63 -32.667 -97 -98
l-51 12c30.667 74.667 53.667 125.667 69 153c32 56 62.667 84 92 84c32 0 102.833 -17.833 212.5 -53.5s193.167 -53.5 250.5 -53.5c54 0 95.333 1.66699 124 5c11.333 1.33301 18.333 1.33301 21 0c3.33301 -1.33301 4 -5 2 -11c-0.666992 -2 -2 -6.33301 -4 -13
c-8 -24 -25.333 -61 -52 -111c-95.333 -6.66699 -190.666 -31.667 -285.999 -75c-97.333 -44 -178.333 -100 -243 -168c-58 -61.333 -87 -133 -87 -215c0 -114.667 57.667 -197.667 173 -249c84 -37.333 191.333 -56 322 -56c76 0 147.333 6 214 18c22 4 34.333 5 37 3
c2 -2 -1.33301 -9 -10 -21zM762.999 -45.001l-109 -115l-123 106l115 120z" />
    <glyph glyph-name="u062D" unicode="&#x62d;" horiz-adv-x="947" arabic-form="isolated" 
d="M1004 -399c-38 -51.333 -60.001 -78.334 -66.001 -81.001c-56 -26.667 -148.667 -40 -278 -40c-138 0 -254.667 25.667 -350 77c-119.333 64 -179 159.333 -179 286c0 232.667 158 412.334 474 539.001c-136 45.333 -232 68 -288 68c-30.667 0 -63 -32.667 -97 -98
l-51 12c30.667 74.667 53.667 125.667 69 153c32 56 62.667 84 92 84c32 0 102.833 -17.833 212.5 -53.5s193.167 -53.5 250.5 -53.5c54 0 95.333 1.66699 124 5c11.333 1.33301 18.333 1.33301 21 0c3.33301 -1.33301 4 -5 2 -11c-0.666992 -2 -2 -6.33301 -4 -13
c-8 -24 -25.333 -61 -52 -111c-95.333 -6.66699 -190.666 -31.667 -285.999 -75c-97.333 -44 -178.333 -100 -243 -168c-58 -61.333 -87 -133 -87 -215c0 -114.667 57.667 -197.667 173 -249c84 -37.333 191.333 -56 322 -56c76 0 147.333 6 214 18c22 4 34.333 5 37 3
c2 -2 -1.33301 -9 -10 -21z" />
    <glyph glyph-name="u062E" unicode="&#x62e;" horiz-adv-x="947" arabic-form="isolated" 
d="M687 933l-101 -108l-116 99l108 112zM1004 -399c-38 -51.333 -60.001 -78.334 -66.001 -81.001c-56 -26.667 -148.667 -40 -278 -40c-138 0 -254.667 25.667 -350 77c-119.333 64 -179 159.333 -179 286c0 232.667 158 412.334 474 539.001c-136 45.333 -232 68 -288 68
c-30.667 0 -63 -32.667 -97 -98l-51 12c30.667 74.667 53.667 125.667 69 153c32 56 62.667 84 92 84c32 0 102.833 -17.833 212.5 -53.5s193.167 -53.5 250.5 -53.5c54 0 95.333 1.66699 124 5c11.333 1.33301 18.333 1.33301 21 0c3.33301 -1.33301 4 -5 2 -11
c-0.666992 -2 -2 -6.33301 -4 -13c-8 -24 -25.333 -61 -52 -111c-95.333 -6.66699 -190.666 -31.667 -285.999 -75c-97.333 -44 -178.333 -100 -243 -168c-58 -61.333 -87 -133 -87 -215c0 -114.667 57.667 -197.667 173 -249c84 -37.333 191.333 -56 322 -56
c76 0 147.333 6 214 18c22 4 34.333 5 37 3c2 -2 -1.33301 -9 -10 -21z" />
    <glyph glyph-name="u062F" unicode="&#x62f;" horiz-adv-x="640" arabic-form="isolated" 
d="M640 303c0 -34 -6.99902 -77.665 -20.999 -130.998c-10.667 -40.667 -18.667 -66.334 -24 -77.001c-11.333 -16 -51.333 -35.333 -120 -58c-79.333 -26 -152.666 -39 -219.999 -39c-57.333 0 -97.333 7.33301 -120 22c-6 59.333 -1 127 15 203
c0.666992 4.66699 7.33398 7 20.001 7c12 0 18.667 -2.33301 20 -7c2.66699 -34.667 7.33398 -55.667 14.001 -63c11.333 -12.667 41 -19 89 -19c29.333 0 76.666 7.66699 141.999 23c72.667 17.333 113.667 33.666 123 48.999c5.33301 8.66699 5.66602 30 0.999023 64
c-12 86.667 -49.333 160.667 -112 222c-42.667 42 -80.334 72.333 -113.001 91c-8 4.66699 -32.667 17.667 -74 39l30 133c3.33301 15.333 11.666 19.666 24.999 12.999c92 -47.333 168 -111.666 228 -192.999c64.667 -88.667 97 -181.667 97 -279z" />
    <glyph glyph-name="u0630" unicode="&#x630;" horiz-adv-x="640" arabic-form="isolated" 
d="M375 1127l-101 -107l-117 100l109 112zM640 303c0 -34 -6.99902 -77.665 -20.999 -130.998c-10.667 -40.667 -18.667 -66.334 -24 -77.001c-11.333 -16 -51.333 -35.333 -120 -58c-79.333 -26 -152.666 -39 -219.999 -39c-57.333 0 -97.333 7.33301 -120 22
c-6 59.333 -1 127 15 203c0.666992 4.66699 7.33398 7 20.001 7c12 0 18.667 -2.33301 20 -7c2.66699 -34.667 7.33398 -55.667 14.001 -63c11.333 -12.667 41 -19 89 -19c29.333 0 76.666 7.66699 141.999 23c72.667 17.333 113.667 33.666 123 48.999
c5.33301 8.66699 5.66602 30 0.999023 64c-12 86.667 -49.333 160.667 -112 222c-42.667 42 -80.334 72.333 -113.001 91c-8 4.66699 -32.667 17.667 -74 39l30 133c3.33301 15.333 11.666 19.666 24.999 12.999c92 -47.333 168 -111.666 228 -192.999
c64.667 -88.667 97 -181.667 97 -279z" />
    <glyph glyph-name="u0631" unicode="&#x631;" horiz-adv-x="574" arabic-form="isolated" 
d="M571 109c0 -98 -30.3311 -204.667 -90.998 -320c-23.333 -44.667 -55 -91.667 -95 -141c-50.667 -62.667 -90 -94 -118 -94c-49.333 0 -108 12.667 -176 38c-12.667 4.66699 -19.334 8.66699 -20.001 12c2 3.33301 8.66699 7.66602 20 12.999
c81.333 36.667 165 96 251 178c100 94.667 150 174.334 150 239.001c0 52.667 -40.667 127 -122 223c0 5.33301 18 57.666 54 156.999c4 10.667 9 12 15 4c27.333 -37.333 54.666 -85 81.999 -143c33.333 -71.333 50 -126.666 50 -165.999z" />
    <glyph glyph-name="u0632" unicode="&#x632;" horiz-adv-x="574" arabic-form="isolated" 
d="M545 737l-102 -107l-116 100l108 112zM571 109c0 -98 -30.3311 -204.667 -90.998 -320c-23.333 -44.667 -55 -91.667 -95 -141c-50.667 -62.667 -90 -94 -118 -94c-49.333 0 -108 12.667 -176 38c-12.667 4.66699 -19.334 8.66699 -20.001 12
c2 3.33301 8.66699 7.66602 20 12.999c81.333 36.667 165 96 251 178c100 94.667 150 174.334 150 239.001c0 52.667 -40.667 127 -122 223c0 5.33301 18 57.666 54 156.999c4 10.667 9 12 15 4c27.333 -37.333 54.666 -85 81.999 -143
c33.333 -71.333 50 -126.666 50 -165.999z" />
    <glyph glyph-name="u0633" unicode="&#x633;" horiz-adv-x="1716" arabic-form="isolated" 
d="M1714 266c0 -51.333 -24.667 -107.003 -74 -167.003c-54 -65.333 -111.667 -98 -173 -98c-35.333 0 -67.166 11 -95.499 33s-46.833 50 -55.5 84c-41.333 -78 -96.333 -117 -165 -117c-35.333 0 -64 8.33301 -86 25c6 -77.333 6 -137.666 0 -180.999
c-7.33301 -51.333 -19.333 -89.333 -36 -114c-48 -70 -133.333 -128.667 -256 -176c-109.333 -42 -212.333 -63 -309 -63c-94 0 -171.333 22.667 -232 68c-67.333 50 -101 120.667 -101 212c0 53.333 15 118.666 45 195.999c49.333 128 80.666 192 93.999 192
c7.33301 0 18 -3.83301 32 -11.5s21 -14.5 21 -20.5c0 12.667 -1.33301 19.334 -4 20.001c-5.33301 0 -17.333 -35.333 -36 -106c-27.333 -101.333 -41 -165.666 -41 -192.999c0 -137.333 89 -206 267 -206c71.333 0 154.333 16.667 249 50c102 36 174.667 77.333 218 124
c4.66699 4 7 21.333 7 52c0 49.333 -10.167 107.5 -30.5 174.5s-43.833 121.833 -70.5 164.5c0 5.33301 18 59.333 54 162c5.33301 15.333 11.666 15.333 18.999 0l74 -158c28 -47.333 67.333 -71 118 -71c82 0 130 68 144 204c9.33301 5.33301 19.333 8 30 8
s22 -2.66699 34 -8c0 -66 6 -113 18 -141c17.333 -40.667 51.333 -61 102 -61c38 0 74 13 108 39c30 22.667 45 42.334 45 59.001c0 12 -28.667 57.667 -86 137l61 146c6.66699 16 13.667 18 21 6c18.667 -30.667 37.334 -71.334 56.001 -122.001
c22.667 -61.333 34 -108.666 34 -141.999z" />
    <glyph glyph-name="u0634" unicode="&#x634;" horiz-adv-x="1716" arabic-form="isolated" 
d="M1447 925l-98 -90l-95 96l97 90zM1554 746l-97 -91l-96 95l98 91zM1339 747l-97 -90l-95 95l97 90zM1714 266c0 -51.333 -24.667 -107.003 -74 -167.003c-54 -65.333 -111.667 -98 -173 -98c-35.333 0 -67.166 11 -95.499 33s-46.833 50 -55.5 84
c-41.333 -78 -96.333 -117 -165 -117c-35.333 0 -64 8.33301 -86 25c6 -77.333 6 -137.666 0 -180.999c-7.33301 -51.333 -19.333 -89.333 -36 -114c-48 -70 -133.333 -128.667 -256 -176c-109.333 -42 -212.333 -63 -309 -63c-94 0 -171.333 22.667 -232 68
c-67.333 50 -101 120.667 -101 212c0 53.333 15 118.666 45 195.999c49.333 128 80.666 192 93.999 192c7.33301 0 18 -3.83301 32 -11.5s21 -14.5 21 -20.5c0 12.667 -1.33301 19.334 -4 20.001c-5.33301 0 -17.333 -35.333 -36 -106
c-27.333 -101.333 -41 -165.666 -41 -192.999c0 -137.333 89 -206 267 -206c71.333 0 154.333 16.667 249 50c102 36 174.667 77.333 218 124c4.66699 4 7 21.333 7 52c0 49.333 -10.167 107.5 -30.5 174.5s-43.833 121.833 -70.5 164.5c0 5.33301 18 59.333 54 162
c5.33301 15.333 11.666 15.333 18.999 0l74 -158c28 -47.333 67.333 -71 118 -71c82 0 130 68 144 204c9.33301 5.33301 19.333 8 30 8s22 -2.66699 34 -8c0 -66 6 -113 18 -141c17.333 -40.667 51.333 -61 102 -61c38 0 74 13 108 39c30 22.667 45 42.334 45 59.001
c0 12 -28.667 57.667 -86 137l61 146c6.66699 16 13.667 18 21 6c18.667 -30.667 37.334 -71.334 56.001 -122.001c22.667 -61.333 34 -108.666 34 -141.999z" />
    <glyph glyph-name="u0635" unicode="&#x635;" horiz-adv-x="1920" arabic-form="isolated" 
d="M1917 276c0 -15.333 -21.0039 -44 -63.0039 -86c-36 -35.333 -64.667 -60 -86 -74c-120 -76.667 -240.667 -115 -362 -115h-264c-32.667 0 -58.334 8.33301 -77.001 25c6 -77.333 6 -137.666 0 -180.999c-7.33301 -51.333 -19.333 -89.333 -36 -114
c-47.333 -69.333 -132.666 -127.333 -255.999 -174c-109.333 -41.333 -212.333 -62 -309 -62c-94.667 0 -172 22 -232 66c-67.333 49.333 -101 119.666 -101 210.999c0 82 33.333 188.333 100 319c22.667 44 36.334 66 41.001 66c34 0 51 -8.66699 51 -26l-40 -105
c-27.333 -72 -41 -131 -41 -177c0 -72 28 -126 84 -162c48 -31.333 109.667 -47 185 -47c74.667 0 158.334 18.167 251.001 54.5s165.667 79.833 219 130.5c2 10 3 22 3 36c0 50 -10.167 109.833 -30.5 179.5s-44.166 125.5 -71.499 167.5
c9.33301 38.667 27.333 92.667 54 162c6 15.333 12.333 15.333 19 0c34.667 -75.333 57 -122.333 67 -141c32 -57.333 62 -86 90 -86c10.667 0 21.334 4.66699 32.001 14c81.333 86.667 158 161 230 223c100 86 198.667 129 296 129c70 0 128.667 -21.5 176 -64.5
s71 -99.167 71 -168.5zM1798 236c0 41.333 -20.332 78.667 -60.999 112c-38.667 31.333 -79 47 -121 47c-98.667 0 -231.334 -85.667 -398.001 -257h229c93.333 0 178 13.667 254 41c64.667 23.333 97 42.333 97 57z" />
    <glyph glyph-name="u0636" unicode="&#x636;" horiz-adv-x="1920" arabic-form="isolated" 
d="M1679 881l-101 -108l-116 99l108 113zM1917 276c0 -15.333 -21.0039 -44 -63.0039 -86c-36 -35.333 -64.667 -60 -86 -74c-120 -76.667 -240.667 -115 -362 -115h-264c-32.667 0 -58.334 8.33301 -77.001 25c6 -77.333 6 -137.666 0 -180.999
c-7.33301 -51.333 -19.333 -89.333 -36 -114c-47.333 -69.333 -132.666 -127.333 -255.999 -174c-109.333 -41.333 -212.333 -62 -309 -62c-94.667 0 -172 22 -232 66c-67.333 49.333 -101 119.666 -101 210.999c0 82 33.333 188.333 100 319c22.667 44 36.334 66 41.001 66
c34 0 51 -8.66699 51 -26l-40 -105c-27.333 -72 -41 -131 -41 -177c0 -72 28 -126 84 -162c48 -31.333 109.667 -47 185 -47c74.667 0 158.334 18.167 251.001 54.5s165.667 79.833 219 130.5c2 10 3 22 3 36c0 50 -10.167 109.833 -30.5 179.5s-44.166 125.5 -71.499 167.5
c9.33301 38.667 27.333 92.667 54 162c6 15.333 12.333 15.333 19 0c34.667 -75.333 57 -122.333 67 -141c32 -57.333 62 -86 90 -86c10.667 0 21.334 4.66699 32.001 14c81.333 86.667 158 161 230 223c100 86 198.667 129 296 129c70 0 128.667 -21.5 176 -64.5
s71 -99.167 71 -168.5zM1798 236c0 41.333 -20.332 78.667 -60.999 112c-38.667 31.333 -79 47 -121 47c-98.667 0 -231.334 -85.667 -398.001 -257h229c93.333 0 178 13.667 254 41c64.667 23.333 97 42.333 97 57z" />
    <glyph glyph-name="u0637" unicode="&#x637;" horiz-adv-x="1130" arabic-form="isolated" 
d="M1128 276c0 -16.667 -18.666 -44.0029 -55.999 -82.0029c-31.333 -32 -62.333 -58.333 -93 -79c-120.667 -81.333 -283 -122 -487 -122h-146c-42 0 -113.333 54 -214 162c115.333 -11.333 185.666 -16 210.999 -14c-4.66699 494.667 -29 808.334 -73 941.001l98 119
c72 -157.333 107 -237.666 105 -240.999c-2 -2 -25.333 2.66699 -70 14c16 -127.333 26 -373 30 -737c26.667 32.667 77.667 80.334 153 143.001c103.333 86 202 129 296 129c66 0 123.5 -22.5 172.5 -67.5s73.5 -100.167 73.5 -165.5zM1009 235.997
c0 41.333 -20.334 78.667 -61.001 112c-38 31.333 -78 47 -120 47c-64 0 -142.667 -35.333 -236 -106c-27.333 -20.667 -84.666 -71 -171.999 -151h238c93.333 0 178 13.667 254 41c64.667 23.333 97 42.333 97 57z" />
    <glyph glyph-name="u0638" unicode="&#x638;" horiz-adv-x="1130" arabic-form="isolated" 
d="M878 868l-102 -108l-116 99l109 113zM1128 276c0 -16.667 -18.666 -44.0029 -55.999 -82.0029c-31.333 -32 -62.333 -58.333 -93 -79c-120.667 -81.333 -283 -122 -487 -122h-146c-42 0 -113.333 54 -214 162c115.333 -11.333 185.666 -16 210.999 -14
c-4.66699 494.667 -29 808.334 -73 941.001l98 119c72 -157.333 107 -237.666 105 -240.999c-2 -2 -25.333 2.66699 -70 14c16 -127.333 26 -373 30 -737c26.667 32.667 77.667 80.334 153 143.001c103.333 86 202 129 296 129c66 0 123.5 -22.5 172.5 -67.5
s73.5 -100.167 73.5 -165.5zM1009 235.997c0 41.333 -20.334 78.667 -61.001 112c-38 31.333 -78 47 -120 47c-64 0 -142.667 -35.333 -236 -106c-27.333 -20.667 -84.666 -71 -171.999 -151h238c93.333 0 178 13.667 254 41c64.667 23.333 97 42.333 97 57z" />
    <glyph glyph-name="u0639" unicode="&#x639;" horiz-adv-x="869" arabic-form="isolated" 
d="M916 -411c-39.333 -54.667 -62.668 -82.666 -70.001 -83.999c-58.667 -16.667 -144.334 -25 -257.001 -25c-120 0 -222 25 -306 75c-101.333 60 -152 146 -152 258c0 158 93 297.333 279 418c-31.333 14 -62 37.333 -92 70c-43.333 47.333 -65 98.333 -65 153
c0 38 24 88 72 150c60 77.333 129.333 116 208 116c21.333 0 48.333 -8 81 -24c44 -21.333 80.667 -50.666 110 -87.999c5.33301 -6.66699 7.33301 -11.334 6 -14.001c-1.33301 -2 -5.66602 -2 -12.999 0c-36 9.33301 -76.667 14 -122 14c-52.667 0 -110 -12 -172 -36
c-54.667 -21.333 -82 -37 -82 -47c0 -34.667 17.667 -73.334 53 -116.001c45.333 -55.333 89.333 -83 132 -83c8 0 55.333 13 142 39l184 55c7.33301 2 11.666 2 12.999 0c-0.666992 -2.66699 -2 -6.66699 -4 -12c-19.333 -45.333 -40.666 -90 -63.999 -134
c-143.333 -28 -249.666 -62.333 -318.999 -103c-143.333 -84 -215 -182.667 -215 -296c0 -100.667 49.333 -175 148 -223c75.333 -36.667 169.333 -55 282 -55c1.33301 0 41.666 2 120.999 6c44.667 2 82.334 3.33301 113.001 4c-1.33301 -4 -5 -10 -11 -18z" />
    <glyph glyph-name="u063A" unicode="&#x63a;" horiz-adv-x="869" arabic-form="isolated" 
d="M587 1041l-101 -107l-116 99l108 112zM916 -411c-39.333 -54.667 -62.668 -82.666 -70.001 -83.999c-58.667 -16.667 -144.334 -25 -257.001 -25c-120 0 -222 25 -306 75c-101.333 60 -152 146 -152 258c0 158 93 297.333 279 418c-31.333 14 -62 37.333 -92 70
c-43.333 47.333 -65 98.333 -65 153c0 38 24 88 72 150c60 77.333 129.333 116 208 116c21.333 0 48.333 -8 81 -24c44 -21.333 80.667 -50.666 110 -87.999c5.33301 -6.66699 7.33301 -11.334 6 -14.001c-1.33301 -2 -5.66602 -2 -12.999 0c-36 9.33301 -76.667 14 -122 14
c-52.667 0 -110 -12 -172 -36c-54.667 -21.333 -82 -37 -82 -47c0 -34.667 17.667 -73.334 53 -116.001c45.333 -55.333 89.333 -83 132 -83c8 0 55.333 13 142 39l184 55c7.33301 2 11.666 2 12.999 0c-0.666992 -2.66699 -2 -6.66699 -4 -12
c-19.333 -45.333 -40.666 -90 -63.999 -134c-143.333 -28 -249.666 -62.333 -318.999 -103c-143.333 -84 -215 -182.667 -215 -296c0 -100.667 49.333 -175 148 -223c75.333 -36.667 169.333 -55 282 -55c1.33301 0 41.666 2 120.999 6c44.667 2 82.334 3.33301 113.001 4
c-1.33301 -4 -5 -10 -11 -18z" />
    <glyph glyph-name="u0641" unicode="&#x641;" horiz-adv-x="1343" arabic-form="isolated" 
d="M1198 1049l-100 -107l-117 100l108 111zM1341 382c0 -74.667 -8.00098 -142.668 -24.001 -204.001c-12.667 -48.667 -24 -75.667 -34 -81c-134.667 -70 -366.667 -105 -696 -105c-304 0 -456 88.333 -456 265c0 49.333 16 109 48 179c29.333 64 49.333 96 60 96
c6 0 14.333 -3.16699 25 -9.5s16 -12.166 16 -17.499c0 8.66699 -1 13.334 -3 14.001c-4 0 -12.333 -21.333 -25 -64c-18.667 -62.667 -28 -104 -28 -124c0 -133.333 132.333 -200 397 -200h196c56.667 0 122.667 6 198 18c96.667 15.333 170.667 36.666 222 63.999
c8 4.66699 14.667 22.667 20 54c2.66699 16.667 4 33.334 4 50.001c0 10 -0.666992 19.333 -2 28c-49.333 -25.333 -105.666 -38 -168.999 -38c-59.333 0 -108 13 -146 39c-13.333 9.33301 -20 48.666 -20 117.999c0 83.333 22 159 66 227c38.667 60 74.667 90 108 90
c43.333 0 89 -25.333 137 -76c70.667 -74 106 -181.667 106 -323zM1248 486.999c0 34 -19.667 67.333 -59 100c-37.333 30.667 -73.333 46 -108 46c-22.667 0 -40.667 -17.333 -54 -52c-10 -26 -15 -52.667 -15 -80c0 -38.667 34.667 -58 104 -58c18 0 42.667 4 74 12
c38.667 10 58 20.667 58 32z" />
    <glyph glyph-name="u0642" unicode="&#x642;" horiz-adv-x="1120" arabic-form="isolated" 
d="M1074 748l-98 -102l-106 96l103 103zM853 739l-99 -101l-106 96l103 102zM1114 69c0 -170.667 -12.666 -273.002 -37.999 -307.002c-33.333 -45.333 -97 -97 -191 -155c-136.667 -84.667 -272 -127 -406 -127c-98.667 0 -179.334 22.667 -242.001 68
c-70.667 50.667 -106 123.667 -106 219c0 56.667 19.333 137 58 241c36.667 98 61.667 147 75 147c7.33301 0 18.333 -4.33301 33 -13s22 -16 22 -22c0 12.667 -1.33301 19.334 -4 20.001c-5.33301 0 -17 -33.667 -35 -101c-26 -97.333 -39 -160.333 -39 -189
c0 -140.667 86 -211 258 -211c101.333 0 206.666 27 315.999 81c96.667 48 166.667 100 210 156c2.66699 2.66699 5.33398 21.334 8.00098 56.001c2.66699 40 2 73.667 -2 101c-42.667 -26 -95.667 -39 -159 -39c-69.333 0 -121 13.333 -155 40
c-14 11.333 -21 50.666 -21 117.999c0 82.667 22.333 158.334 67 227.001c39.333 60 75.333 90 108 90c42.667 0 88 -25.333 136 -76c71.333 -74.667 107 -182.667 107 -324zM1012 177.998c0 34 -17.667 66.1689 -53 96.502s-70.333 45.5 -105 45.5
c-22 0 -39.667 -17 -53 -51c-10.667 -26.667 -16 -53.334 -16 -80.001c0 -37.333 39.667 -56 119 -56c17.333 0 38 3.66699 62 11c30.667 9.33301 46 20.666 46 33.999z" />
    <glyph glyph-name="u0643" unicode="&#x643;" horiz-adv-x="1544" arabic-form="isolated" 
d="M1510 1037c-242 -112 -433.334 -218.331 -574.001 -318.998l109 -64c62 -38 114.667 -81 158 -129c54.667 -60.667 82 -120.334 82 -179.001c0 -86.667 -6.66699 -141.334 -20 -164.001c-24.667 -42 -67 -77.667 -127 -107c-102 -50 -240 -75 -414 -75h-163
c-286.667 0 -430 85.667 -430 257c0 51.333 16 113.333 48 186c28.667 65.333 48.334 98 59.001 98c2.66699 0 10.5 -4.16699 23.5 -12.5s19.5 -13.5 19.5 -15.5c0 8.66699 -1 13.334 -3 14.001c-4 0 -12.333 -21.333 -25 -64c-19.333 -63.333 -29 -105.666 -29 -126.999
c0 -131.333 116.333 -197 349 -197l16 1c10.667 0.666992 21.667 1 33 1c93.333 1.33301 196.333 5.66602 309 12.999l53 4c40.667 7.33301 85 20.666 133 39.999c68 27.333 102 53.333 102 78c0 61.333 -51 133.333 -153 216c-30 24 -73.667 53 -131 87
c-44 26 -66 42.333 -66 49c0 20 2.33301 52.333 7 97c5.33301 53.333 10 81.333 14 84c177.333 131.333 399 262.333 665 393c13.333 6.66699 23 10 29 10c4.66699 0 7 -1.66699 7 -5c0 -4 -27 -60.667 -81 -170z" />
    <glyph glyph-name="u0644" unicode="&#x644;" horiz-adv-x="1053" arabic-form="isolated" 
d="M1048 965c-12 0.666992 -32.6689 5.33105 -62.002 13.998l5 -157l17 -677l-1 -254c0 -16.667 -11.667 -52.334 -35 -107.001c-21.333 -50.667 -36.666 -81.667 -45.999 -93c-23.333 -29.333 -72.666 -61.666 -147.999 -96.999c-99.333 -46.667 -198 -70 -296 -70
s-177.667 18.667 -239 56c-74.667 45.333 -112 114 -112 206c0 53.333 13.667 119 41 197c24.667 70 41.334 105 50.001 105c5.33301 0 14.666 -3.16699 27.999 -9.5s20 -11.166 20 -14.499c0 10 -0.666992 15.333 -2 16c-3.33301 0 -10 -25 -20 -75
c-15.333 -72.667 -23 -121.667 -23 -147c0 -62 31.333 -110 94 -144c51.333 -28 110.333 -42 177 -42c84 0 158.333 12.333 223 37c136 52 203.667 93.333 203 124l-12 578c-3.33301 172.667 -19 365.667 -47 579c-10 76.667 -15 110.667 -15 102l99 121
c3.33301 -10 23 -56.333 59 -139c30 -69.333 44 -105.666 42 -108.999z" />
    <glyph glyph-name="u0645" unicode="&#x645;" horiz-adv-x="759" arabic-form="isolated" 
d="M758 320c0 -14.667 -7.16602 -43.5039 -21.499 -86.5039s-25.833 -72.5 -34.5 -88.5c-4.66699 -8.66699 -26.334 -13 -65.001 -13c8.66699 0 -3.33301 0.333008 -36 1h-36c-8.66699 0 -23.334 -1 -44.001 -3c-55.333 -5.33301 -116.333 -17.666 -183 -36.999
c-74 -21.333 -111 -41 -111 -59c0 16.667 0.333008 25.334 1 26.001c2.66699 -14 6.66699 -64 12 -150c8.66699 -140.667 13 -228.667 13 -264c0 -16.667 -0.333008 -31.667 -1 -45c-0.666992 -15.333 -12 -36.166 -34 -62.499s-41 -44.166 -57 -53.499
c-1.33301 111.333 -3.33301 214 -6 308c-2 74.667 -10 143 -24 205l37 140c7.33301 12.667 30 28.334 68 47.001l76 38c-22.667 51.333 -34 100.666 -34 147.999c0 44.667 13.333 85.334 40 122.001c28.667 40.667 64.667 61 108 61c66 0 131 -20 195 -60
c22.667 -14 50.334 -40.333 83.001 -79c36 -42.667 54 -74.334 54 -95.001zM658.001 264.996c-49.333 99.333 -132.333 148.999 -249 148.999c-27.333 0 -41 -13.333 -41 -40c0 -64.667 6 -107.667 18 -129c96 14.667 186.667 21.334 272 20.001z" />
    <glyph glyph-name="u0646" unicode="&#x646;" horiz-adv-x="1078" arabic-form="isolated" 
d="M765 546l-101 -107l-117 100l109 112zM1068 -165c-1.33301 -10 -8 -32.667 -20 -68c-12.667 -37.333 -21 -58 -25 -62c-144.667 -142 -331 -213 -559 -213c-97.333 0 -175.333 21.667 -234 65c-66 49.333 -99 121 -99 215c0 53.333 15 118.666 45 195.999
c9.33301 24 25.666 59 48.999 105c29.333 57.333 47.333 86 54 86s16.5 -4.5 29.5 -13.5s19.5 -16.5 19.5 -22.5c0 13.333 -1.33301 20 -4 20c-6 0 -19 -33.667 -39 -101c-28.667 -98.667 -43 -163 -43 -193c0 -137.333 89.667 -206 269 -206c84.667 0 170.667 14 258 42
c102 32.667 175.333 77 220 133c4.66699 6 7 24 7 54c0 90.667 -28 196.667 -84 318c2 5.33301 12.333 29 31 71c20.667 46 33.334 76.333 38.001 91c5.33301 16.667 11.333 16.667 18 0c51.333 -126 77 -255 77 -387c0 -43.333 -2.66699 -86.666 -8 -129.999z" />
    <glyph glyph-name="u0647" unicode="&#x647;" horiz-adv-x="599" arabic-form="isolated" 
d="M598 244c0 -19.333 -8.83301 -50.668 -26.5 -94.001s-33.5 -72.333 -47.5 -87c-38 -41.333 -108.667 -62 -212 -62c-53.333 0 -96.333 14 -129 42c-34.667 29.333 -52 70 -52 122c0 44.667 19 111.334 57 200.001l105 242c203.333 -90.667 305 -211.667 305 -363z
M511 195.998c0 84.667 -67.999 165.333 -203.999 242c-53.333 -111.333 -80 -184 -80 -218c0 -24 13.333 -44.667 40 -62c23.333 -16 47.666 -24 72.999 -24c21.333 0 53.333 6 96 18c50 14 75 28.667 75 44z" />
    <glyph glyph-name="u0648" unicode="&#x648;" horiz-adv-x="634" arabic-form="isolated" 
d="M633 114c0 -116 -26.667 -227.333 -80 -334c-27.333 -54.667 -75.333 -122.667 -144 -204c-47.333 -56 -78.333 -84 -93 -84c-64.667 0 -130.667 18.667 -198 56c-16 8.66699 -24.333 14.667 -25 18c0 4 7.66699 9 23 15c92 35.333 175.333 86 250 152
c106 93.333 167 186.333 183 279c-34 -6.66699 -84.667 -10 -152 -10c-24 0 -53 4 -87 12c-42 10 -67.333 21.333 -76 34c-12.667 18.667 -17.667 63.667 -15 135c2.66699 76.667 30.667 148 84 214c46 57.333 85 86 117 86c36.667 0 77 -25.667 121 -77
c61.333 -72 92 -169.333 92 -292zM539 165c0 38.667 -14.333 76.333 -43 113c-30 40 -63.667 60 -101 60c-21.333 0 -40.333 -18.667 -57 -56c-14 -32 -21 -60.333 -21 -85c0 -38.667 31.667 -58 95 -58c54 0 96.333 8.66699 127 26z" />
    <glyph glyph-name="u0649" unicode="&#x649;" horiz-adv-x="1296" arabic-form="isolated" 
d="M1294 603c-31.333 -101.333 -48.6689 -152 -52.002 -152c-87.333 0 -142.333 -4.66699 -165 -14c-36.667 -15.333 -83 -54.666 -139 -117.999c-52 -59.333 -78 -97.333 -78 -114c0 -28.667 42.333 -55.334 127 -80.001c74.667 -21.333 120.334 -36.333 137.001 -45
c45.333 -22.667 68 -53.334 68 -92.001c0 -14 -7.5 -50 -22.5 -108s-25.5 -89.667 -31.5 -95c-22 -18 -96.667 -49 -224 -93c-167.333 -58 -310 -87 -428 -87c-96.667 0 -177.667 22.333 -243 67c-74.667 51.333 -112 123.333 -112 216c0 60 19 132.667 57 218
c9.33301 21.333 26.666 54.666 51.999 99.999c30.667 54.667 49.334 82 56.001 82c8 0 19.167 -3.66699 33.5 -11s21.5 -14.333 21.5 -21c0 14.667 -1.66699 22 -5 22c-8 0 -24.667 -36.333 -50 -109c-36.667 -105.333 -55 -172.333 -55 -201
c0 -75.333 29 -131.666 87 -168.999c48.667 -32 112.667 -48 192 -48c139.333 0 297.333 34.667 474 104c74.667 29.333 112 52 112 68s-34.333 34.667 -103 56c-92.667 28.667 -145.667 46.334 -159 53.001c-50.667 25.333 -76 52.666 -76 81.999
c0 36.667 18.333 95.334 55 176.001c102.667 226.667 228.334 340 377.001 340c68 0 99.333 -9 94 -27z" />
    <glyph glyph-name="u064A" unicode="&#x64a;" horiz-adv-x="1296" arabic-form="isolated" 
d="M1294 603c-31.333 -101.333 -48.6689 -152 -52.002 -152c-87.333 0 -142.333 -4.66699 -165 -14c-36.667 -15.333 -83 -54.666 -139 -117.999c-52 -59.333 -78 -97.333 -78 -114c0 -28.667 42.333 -55.334 127 -80.001c74.667 -21.333 120.334 -36.333 137.001 -45
c45.333 -22.667 68 -53.334 68 -92.001c0 -14 -7.5 -50 -22.5 -108s-25.5 -89.667 -31.5 -95c-22 -18 -96.667 -49 -224 -93c-167.333 -58 -310 -87 -428 -87c-96.667 0 -177.667 22.333 -243 67c-74.667 51.333 -112 123.333 -112 216c0 60 19 132.667 57 218
c9.33301 21.333 26.666 54.666 51.999 99.999c30.667 54.667 49.334 82 56.001 82c8 0 19.167 -3.66699 33.5 -11s21.5 -14.333 21.5 -21c0 14.667 -1.66699 22 -5 22c-8 0 -24.667 -36.333 -50 -109c-36.667 -105.333 -55 -172.333 -55 -201
c0 -75.333 29 -131.666 87 -168.999c48.667 -32 112.667 -48 192 -48c139.333 0 297.333 34.667 474 104c74.667 29.333 112 52 112 68s-34.333 34.667 -103 56c-92.667 28.667 -145.667 46.334 -159 53.001c-50.667 25.333 -76 52.666 -76 81.999
c0 36.667 18.333 95.334 55 176.001c102.667 226.667 228.334 340 377.001 340c68 0 99.333 -9 94 -27z" />
    <glyph glyph-name="u067E" unicode="&#x67e;" horiz-adv-x="1309" arabic-form="isolated" 
d="M1308 294c0 -19.333 -9.50098 -52.332 -28.501 -98.999s-35.167 -75.334 -48.5 -86.001c-33.333 -25.333 -124 -51.666 -272 -78.999c-142 -26 -266 -39 -372 -39c-304 0 -456 86.333 -456 259c0 52 15.667 113.667 47 185c28.667 64.667 48.334 97 59.001 97
c4.66699 0 13 -3.66699 25 -11s18 -13 18 -17c0 8.66699 -1 13.334 -3 14.001c-4 0 -12.333 -21.333 -25 -64c-18.667 -62 -28 -103.333 -28 -124c0 -132.667 133 -199 399 -199c98 0 201.667 8 311 24c191.333 28 287 55 287 81c0 23.333 -24.333 76.666 -73 159.999
l76 134c6.66699 11.333 11 11.666 13 0.999023c47.333 -114.667 71 -193.667 71 -237zM895.999 -227.999l-97 -90l-95 96l97 90zM680.999 -225.999l-97 -91l-95 96l97 90zM787.999 -406.999l-96 -89l-96 95l98 90z" />
    <glyph glyph-name="u0686" unicode="&#x686;" horiz-adv-x="947" arabic-form="isolated" 
d="M792 -5l-97 -89l-95 95l96 90zM1004 -399c-38 -51.333 -60.001 -78.334 -66.001 -81.001c-56 -26.667 -148.667 -40 -278 -40c-138 0 -254.667 25.667 -350 77c-119.333 64 -179 159.333 -179 286c0 232.667 158 412.334 474 539.001c-136 45.333 -232 68 -288 68
c-30.667 0 -63 -32.667 -97 -98l-51 12c30.667 74.667 53.667 125.667 69 153c32 56 62.667 84 92 84c32 0 102.833 -17.833 212.5 -53.5s193.167 -53.5 250.5 -53.5c54 0 95.333 1.66699 124 5c11.333 1.33301 18.333 1.33301 21 0c3.33301 -1.33301 4 -5 2 -11
c-0.666992 -2 -2 -6.33301 -4 -13c-8 -24 -25.333 -61 -52 -111c-95.333 -6.66699 -190.666 -31.667 -285.999 -75c-97.333 -44 -178.333 -100 -243 -168c-58 -61.333 -87 -133 -87 -215c0 -114.667 57.667 -197.667 173 -249c84 -37.333 191.333 -56 322 -56
c76 0 147.333 6 214 18c22 4 34.333 5 37 3c2 -2 -1.33301 -9 -10 -21zM576.999 -3.00098l-97 -90l-96 96l98 90zM683.999 -182.001l-97 -91l-95 95l97 90z" />
    <glyph glyph-name="u0698" unicode="&#x698;" horiz-adv-x="620" arabic-form="isolated" 
d="M523 904l-97 -90l-95 95l97 90zM631 723l-98 -90l-95 96l97 90zM416 725l-97 -90l-96 96l97 90zM571 109c0 -98 -30.3311 -204.667 -90.998 -320c-23.333 -44.667 -55 -91.667 -95 -141c-50.667 -62.667 -90 -94 -118 -94c-49.333 0 -108 12.667 -176 38
c-12.667 4.66699 -19.334 8.66699 -20.001 12c2 3.33301 8.66699 7.66602 20 12.999c81.333 36.667 165 96 251 178c100 94.667 150 174.334 150 239.001c0 52.667 -40.667 127 -122 223c0 5.33301 18 57.666 54 156.999c4 10.667 9 12 15 4
c27.333 -37.333 54.666 -85 81.999 -143c33.333 -71.333 50 -126.666 50 -165.999z" />
    <glyph glyph-name="u06AF" unicode="&#x6af;" horiz-adv-x="1521" arabic-form="isolated" 
d="M1521 1199l-47 -88c-114 -32 -297 -100.667 -549 -206c4 18 10 46.667 18 86c226 96.667 418.667 166 578 208zM1568 1010c-40.667 -74 -65.332 -112.333 -73.999 -115c-134 -42 -317.667 -105.333 -551 -190l190 -110c106.667 -75.333 160 -158.333 160 -249
c0 -87.333 -6.66699 -142.333 -20 -165c-70.667 -120.667 -253.667 -181 -549 -181h-163c-286.667 0 -430 85.667 -430 257c0 52.667 16.333 115.334 49 188.001c28.667 64 47.667 96 57 96c4.66699 0 13.167 -3.83301 25.5 -11.5s18.5 -13.167 18.5 -16.5
c0 8.66699 -1 13 -3 13c-4 0 -12.333 -21.333 -25 -64c-19.333 -63.333 -29 -105.333 -29 -126c0 -130 115.667 -195 347 -195c-6.66699 0 1.66602 0.333008 24.999 1h26c164 -3.33301 284.667 2 362 16c46 8 92.667 21.667 140 41c69.333 28 104 56.333 104 85
c0 19.333 -14.333 50.666 -43 93.999c-46.667 70 -134 136.667 -262 200c-32.667 16 -48.667 28.333 -48 37c4 60.667 11 121 21 181c158 82.667 373.667 162.667 647 240c16.667 4.66699 27.667 7 33 7c3.33301 0 5 -1.33301 5 -4c0 -3.33301 -4.33301 -13 -13 -29z" />
    <glyph glyph-name="uFB57" unicode="&#x67e;" horiz-adv-x="1390" arabic-form="final" 
d="M1416 1h-60.001c-113.333 0 -172 54 -176 162c-68.667 -52.667 -163 -95.334 -283 -128.001c-108 -29.333 -211.333 -44 -310 -44c-304 0 -456 85.667 -456 257c0 52.667 16 115 48 187c28.667 64.667 48.334 97 59.001 97c5.33301 0 13.833 -3.66699 25.5 -11
s17.5 -13 17.5 -17c0 8.66699 -1 13.334 -3 14.001c-4 0 -12.333 -21.333 -25 -64c-19.333 -63.333 -29 -105.666 -29 -126.999c0 -130.667 133 -196 399 -196c78.667 0 184.667 14.333 318 43c64 14 124.333 37 181 69c33.333 19.333 59.666 49 78.999 89
c15.333 32 24 49.333 26 52c4.66699 0 14.334 -2.33301 29.001 -7s22 -8.33398 22 -11.001c0 20 -3.16699 6.83301 -9.5 -39.5s-9.5 -72.5 -9.5 -78.5c0 -72 35.667 -108 107 -108h50v-139zM895.999 -228l-97 -90l-95 96l97 90zM680.999 -226l-97 -91l-95 96l97 90z
M787.999 -407l-96 -89l-96 95l98 90z" />
    <glyph glyph-name="uFB58" unicode="&#x67e;" horiz-adv-x="395" arabic-form="initial" 
d="M335 278c0 -70.667 -28.166 -134.501 -84.499 -191.501s-119.833 -85.5 -190.5 -85.5h-94v139h69c42.667 0 84.667 6.66699 126 20c56.667 18.667 85 45.667 85 81c0 4 -12.667 26 -38 66s-38 61.333 -38 64c0 4 20 57 60 159
c3.33301 8.66699 6.66602 10.334 9.99902 5.00098c63.333 -95.333 95 -181 95 -257zM412.001 -233.001l-96 -90l-96 95l97 90zM197.001 -232.001l-96 -89l-95 95l96 90zM305.001 -411.001l-97 -91l-95 95l96 90z" />
    <glyph glyph-name="uFB59" unicode="&#x67e;" horiz-adv-x="473" arabic-form="medial" 
d="M498 1h-76.002c-78 0 -138.333 35.333 -181 106c-51.333 -70.667 -120.666 -106 -207.999 -106h-59v139h46c126.667 0 190 68.333 190 205c8.66699 5.33301 20.334 8 35.001 8c14 0 24 -2.66699 30 -8c0 -78 9 -129.667 27 -155c23.333 -33.333 75 -50 155 -50h41v-139z
M437.998 -228l-96 -90l-96 96l98 90zM222.998 -226l-96 -91l-95 96l96 90zM330.998 -407l-97 -89l-95 95l97 90z" />
    <glyph glyph-name="uFB7B" unicode="&#x686;" horiz-adv-x="1048" arabic-form="final" 
d="M766 -15l-97 -90l-96 96l98 90zM1074 1l-72.999 0.00195312c-96 0 -165 38 -207 114c-22 40 -33 117 -33 231c-176 -45.333 -310.667 -120.333 -404 -225c-58.667 -66 -88 -137.667 -88 -215c0 -202.667 164.667 -304 494 -304c86 0 179.333 8.66699 280 26
c20.667 3.33301 32.334 3.66602 35.001 0.999023c2.66699 -2 -0.333008 -9 -9 -21c-38 -50.667 -59.667 -77.334 -65 -80.001c-66.667 -32 -181.334 -48 -344.001 -48c-138 0 -254.667 25.667 -350 77c-119.333 64 -179 159.333 -179 286c0 229.333 158 409 474 539
c-136 45.333 -232 68 -288 68c-30.667 0 -63 -32.667 -97 -98l-51 12c30.667 74.667 53.667 125.667 69 153c32 56 62.667 84 92 84c34 0 106.833 -17.667 218.5 -53s196.167 -53 253.5 -53c70.667 0 139.667 7.66699 207 23c12 2.66699 19 3 21 1
c1.33301 -2 0.333008 -8 -3 -18c-8.66699 -25.333 -25.667 -67 -51 -125c-36.667 -2 -85.334 -7.33301 -146.001 -16c0 -146.667 62.667 -220 188 -220h56v-139zM551.001 -12.998l-97 -90l-96 96l98 89zM658.001 -193.998l-97 -89l-95 95l97 90z" />
    <glyph glyph-name="uFB7C" unicode="&#x686;" horiz-adv-x="841" arabic-form="initial" 
d="M830 273c-4 -6.66699 -22.334 -40.999 -55.001 -102.999c-28.667 4 -55.667 6 -81 6c-62 0 -118 -10.667 -168 -32c-26.667 -12 -75.334 -32.667 -146.001 -62c-138.667 -54 -245 -81 -319 -81h-87v139h74c54 0 133 11.667 237 35c112.667 25.333 197.334 53 254.001 83
c-40 20.667 -112.333 66 -217 136c-86 57.333 -133 86 -141 86c-18 0 -50 -32.333 -96 -97l-41 27c61.333 140.667 113.333 211 156 211c34 0 86.333 -27.667 157 -83c108.667 -84.667 178 -136.334 208 -155.001c90 -55.333 174.667 -83 254 -83c11.333 0 18.333 -1 21 -3
s-0.666016 -10 -9.99902 -24zM572.999 -237.999l-96 -91l-95 96l96 90zM357.999 -235.999l-96 -91l-95 95l96 91zM465.999 -416.999l-96 -90l-96 96l97 90z" />
    <glyph glyph-name="uFB7D" unicode="&#x686;" horiz-adv-x="1084" arabic-form="medial" 
d="M1111 1h-44.999c-127.333 0 -215.333 32 -264 96c-30.667 40 -46 121.667 -46 245c-4 -2 -86.667 -60.333 -248 -175c-155.333 -110.667 -292.333 -166 -411 -166h-123v139h112c143.333 0 320.333 79.333 531 238c-44.667 6 -123.334 31 -236.001 75
c-106 41.333 -165.333 62 -178 62c-20 0 -41.5 -15.833 -64.5 -47.5s-34.167 -47.5 -33.5 -47.5l-50 12c63.333 152 116.666 228 159.999 228c18.667 0 96.167 -26.833 232.5 -80.5s240.5 -80.5 312.5 -80.5c100.667 0 182.334 7.66699 245.001 23
c12.667 3.33301 19.667 4 21 2c0.666992 -3.33301 -0.333008 -9.33301 -3 -18c-9.33301 -28 -28.666 -67.333 -57.999 -118c-56.667 -4.66699 -106.334 -12.667 -149.001 -24c0 -149.333 85.333 -224 256 -224h39v-139zM802.001 -233l-96 -90l-96 95l97 90zM587.001 -232
l-96 -89l-96 95l97 90zM695.001 -411l-97 -91l-95 95l97 90z" />
    <glyph glyph-name="uFB8B" unicode="&#x698;" horiz-adv-x="696" arabic-form="final" 
d="M541 869l-97 -90l-96 95l97 90zM648 689l-97 -90l-95 95l97 90zM433 691l-97 -91l-95 96l97 90zM722 1h-31.001c-48.667 0 -84.667 13.667 -108 41c-7.33301 -80 -41.666 -179 -102.999 -297c-25.333 -48.667 -56.666 -96.667 -93.999 -144c-50.667 -64 -90 -96 -118 -96
c-38 0 -97.667 15 -179 45c-12.667 4.66699 -19.334 8.66699 -20.001 12c0 3.33301 6.66699 8 20 14c92.667 42 183.334 105.667 272.001 191c97.333 94 146 174.333 146 241c0 46.667 -43.667 121.334 -131 224.001c0 -13.333 18 38 54 154
c3.33301 11.333 8.33301 12.666 15 3.99902l87 -139c47.333 -74 93.666 -111 138.999 -111h51v-139z" />
    <glyph glyph-name="uFEDA" unicode="&#x6a9;" horiz-adv-x="1705" arabic-form="final" 
d="M1731 1h-37.0029c-61.333 0 -124.666 35 -189.999 105l-216 232c5.33301 -24.667 6 -60 2 -106c-3.33301 -40 -7.66602 -64.333 -12.999 -73c-63.333 -106 -247.666 -159 -552.999 -159h-163c-286.667 0 -430 85.667 -430 257c0 54 16.333 117 49 189
c28.667 63.333 48 95 58 95c6 0 14.667 -3.5 26 -10.5s17 -13.167 17 -18.5c0 8.66699 -1 13.334 -3 14.001c-4 0 -12.333 -21.333 -25 -64c-19.333 -62.667 -29 -104.667 -29 -126c0 -130 116 -195 348 -195c-5.33301 0 3 0.333008 25 1h25c167.333 -2 290 3.33301 368 16
c50.667 8 99 21 145 39c70.667 27.333 106 57 106 89c0 64 -55 133.333 -165 208c-34.667 23.333 -83 54 -145 92c-27.333 16.667 -40.666 30 -39.999 40c4 66 10 126 18 180c159.333 129.333 375 260 647 392c15.333 7.33301 24.666 11.333 27.999 12
c2.66699 -0.666992 4 -2.33398 4 -5.00098c0 -4 -2.66699 -14.333 -8 -31c-10.667 -32.667 -25 -74 -43 -124c-260.667 -133.333 -453 -247 -577 -341c87.333 -40.667 192.333 -113.334 315 -218.001c10.667 -9.33301 89.667 -86.666 237 -231.999
c80 -79.333 141.667 -119 185 -119h34v-139z" />
    <glyph glyph-name="uFEDB" unicode="&#x6a9;" horiz-adv-x="725" arabic-form="initial" 
d="M756 1178c-12 -26 -35.3311 -72.998 -69.998 -140.998c-238.667 -118 -426.667 -225.333 -564 -322l106 -63c59.333 -36.667 110.666 -79.334 153.999 -128.001c52.667 -60 79 -119.333 79 -178c0 -94 -5.66699 -151 -17 -171c-66 -116 -207.667 -174 -425 -174h-45v139
h52c128 0 230.667 23 308 69c41.333 24.667 62 47 62 67c0 68.667 -51 140.667 -153 216c-26 19.333 -70.333 48 -133 86c-42.667 26 -64 42.667 -64 50c0 20 2.33301 52.333 7 97c5.33301 53.333 10 81.333 14 84c183.333 135.333 405 266.333 665 393
c15.333 7.33301 25.666 11 30.999 11c4 0 6 -1.66699 6 -5c-1.33301 -4.66699 -5 -13.334 -11 -26.001z" />
    <glyph glyph-name="uFEDC" unicode="&#x6a9;" horiz-adv-x="891" arabic-form="medial" 
d="M917 1l-37.0049 0.00195312c-62 0 -125.667 35 -191 105l-215 232c6 -26.667 7.66699 -62 5 -106c-1.33301 -20.667 -5.66602 -45.667 -12.999 -75c-26 -35.333 -66.333 -67 -121 -95c-79.333 -40.667 -173 -61 -281 -61h-90v139h101
c104.667 0 192.334 16.667 263.001 50c61.333 28.667 92 59 92 91c0 59.333 -58 130.333 -174 213c-31.333 22 -79 52.667 -143 92c-29.333 18 -43.666 31.667 -42.999 41c4.66699 56 12.667 115.667 24 179c230 161.333 445.667 292 647 392c16 8 25.667 12 29 12
c2.66699 -0.666992 4 -2.33398 4 -5.00098l-9 -31c-13.333 -44.667 -27.666 -86 -42.999 -124c-238.667 -112.667 -432.667 -223.334 -582 -332.001c68 -42.667 174 -118 318 -226l237 -233c80.667 -79.333 143.334 -119 188.001 -119h34v-139z" />
    <glyph glyph-name="uFB93" unicode="&#x6af;" horiz-adv-x="1712" arabic-form="final" 
d="M1586 1205l-48.999 -92.999c-53.333 -14.667 -159.333 -50.334 -318 -107.001c-148.667 -52.667 -242 -87 -280 -103c3.33301 18 9.66602 48.333 18.999 91c288 109.333 497.333 180 628 212zM1737 1.00098l-37 -0.00195312c-62 0 -125.667 35 -191 105l-216 232
c0 -101.333 -5.33301 -161 -16 -179c-63.333 -106 -247.666 -159 -552.999 -159h-163c-286.667 0 -430 85.667 -430 257c0 51.333 16 113.333 48 186c28.667 65.333 48.334 98 59.001 98c4 0 12.167 -3.83301 24.5 -11.5s18.5 -13.167 18.5 -16.5
c0 8.66699 -1 13.334 -3 14.001c-4 0 -12.333 -21.333 -25 -64c-19.333 -63.333 -29 -105.666 -29 -126.999c0 -130 116.333 -195 349 -195c-6 0 2 0.333008 24 1h25c167.333 -2 290 3.33301 368 16c50.667 8 99 21 145 39c70.667 27.333 106 57 106 89
c0 66.667 -55 136 -165 208c-36 23.333 -84 52 -144 86c-28.667 16 -42.334 28.333 -41.001 37c3.33301 58.667 9.66602 119 18.999 181c224 104 462 183.333 714 238c25.333 5.33301 38 6 38 2c0 -11.333 -20.667 -44 -62 -98c-22 -28.667 -35 -43.667 -39 -45
c-322.667 -86.667 -525 -150 -607 -190l127 -76c92.667 -56 158 -101.667 196 -137l240 -234c80.667 -78.667 142.667 -118 186 -118h34v-139z" />
    <glyph glyph-name="uFB94" unicode="&#x6af;" horiz-adv-x="694" arabic-form="initial" 
d="M689 1199l-47.002 -87.999c-114 -32 -296.667 -100.667 -548 -206c2.66699 18 8.33398 46.667 17.001 86c212.667 91.333 405.334 160.666 578.001 207.999zM734.998 1010c-42.667 -75.333 -66.999 -113.666 -72.999 -114.999
c-152.667 -49.333 -336.334 -112.666 -551.001 -189.999l190 -110c106.667 -75.333 160 -158.333 160 -249c0 -94 -5.66699 -151 -17 -171c-66 -116 -207.667 -174 -425 -174h-45v139h52c131.333 0 233.666 23 306.999 69c42 26.667 63 51.667 63 75
c0 20 -14.333 51.667 -43 95c-44.667 67.333 -131.667 133.666 -261 198.999c-32.667 16.667 -48.667 29 -48 37c3.33301 62.667 10 123 20 181c162.667 81.333 378.334 161.666 647.001 240.999c16 4.66699 26.667 7 32 7c4 0 6 -1.33301 6 -4
c0 -3.33301 -4.66699 -13.333 -14 -30z" />
    <glyph glyph-name="uFB95" unicode="&#x6af;" horiz-adv-x="891" arabic-form="medial" 
d="M765 1205l-47.999 -92.999c-53.333 -14.667 -159.333 -50.334 -318 -107.001c-148.667 -52.667 -242 -87 -280 -103c2.66699 18 8.66699 48.333 18 91c289.333 109.333 498.666 180 627.999 212zM917.001 1.00098l-37.0029 0.00195312c-62.667 0 -126.667 35 -192 105
l-216 232c0 -102.667 -4.66699 -162.334 -14 -179.001c-18 -32 -62.667 -64.667 -134 -98c-85.333 -40 -174.666 -60 -267.999 -60h-82v139h101c82.667 0 162.334 18.333 239.001 55c70.667 34 106 64.333 106 91c0 66.667 -54.667 136 -164 208
c-37.333 24.667 -85.666 53.334 -144.999 86.001c-28 15.333 -41.667 27.666 -41 36.999c3.33301 61.333 10 121.666 20 180.999c232.667 103.333 470.334 183 713.001 239c25.333 6 38 6.66699 38 2c0 -13.333 -20.667 -46.333 -62 -99
c-22.667 -29.333 -35.667 -44.333 -39 -45c-290 -77.333 -492.333 -140 -607 -188l128 -77c95.333 -57.333 160.666 -103.333 195.999 -138l238 -233c81.333 -79.333 144 -119 188 -119h34v-139z" />
    <glyph glyph-name="uFE94" unicode="&#x6c0;" horiz-adv-x="773" arabic-form="final" 
d="M799 1l-32.999 0.000976562c-60 0 -106.667 20.667 -140 62c-22.667 28 -45 76.667 -67 146c-28.667 -33.333 -60 -66.666 -94 -99.999c-51.333 -2.66699 -114 3 -188 17c-97.333 18 -146 45 -146 81c0 6 9.5 37 28.5 93s29.833 85.333 32.5 88
c44.667 45.333 141.667 95.666 291 150.999l-23 133c6.66699 12.667 26.667 55.667 60 129c6 13.333 10 13.666 12 0.999023c1.33301 -14.667 22.666 -127.667 63.999 -339c18 -92.667 33 -156 45 -190c31.333 -88.667 71 -133 119 -133h39v-139zM548.001 244.001
c-6 30 -21 97.666 -45 202.999l-119 -47c-89.333 -39.333 -134 -72.666 -134 -99.999c0 -4.66699 2.66699 -8.66699 8 -12c42 -28 138.667 -42.667 290 -44zM598.001 1019c0.666992 -7.33301 -3.00195 -23.167 -11.002 -47.5s-14 -36.5 -18 -36.5
c-27.333 -5.33301 -55 -10.333 -83 -15c-67.333 -18.667 -138.666 -51 -213.999 -97c0.666992 22 2.33398 44 5.00098 66c20 15.333 52 33.666 96 54.999c-53.333 25.333 -80 56 -80 92c0 28.667 20.333 61.834 61 99.501s75.667 56.5 105 56.5
c39.333 0 77.666 -18.333 114.999 -55l-59 -57c-25.333 21.333 -47.666 32 -66.999 32c-14.667 0 -32 -5.33301 -52 -16c-22.667 -11.333 -34 -23.666 -34 -36.999c0 -14 13 -30.333 39 -49c24 -17.333 43.667 -26 59 -26c10.667 0 32.667 5.33301 66 16
c36.667 11.333 60.667 17.666 72 18.999z" />
    <glyph glyph-name="uFEF2" unicode="&#x6cc;" horiz-adv-x="1165" arabic-form="final" 
d="M1191 1l-168.002 0.00195312c-54.667 0 -106.334 -15.333 -155.001 -46c-14.667 -9.33301 -22 -16.333 -22 -21s7.33301 -9.33398 22 -14.001l132 -41c66.667 -22 100 -42.333 100 -61c0 -27.333 -3 -63.333 -9 -108c-7.33301 -57.333 -17 -89 -29 -95
c-38.667 -20.667 -106.667 -44.667 -204 -72c-133.333 -37.333 -253 -56 -359 -56c-98 0 -179.667 18.667 -245 56c-80 46 -120 114.333 -120 205c0 80 16 158.667 48 236c9.33301 22.667 24.333 53.334 45 92.001c26.667 50.667 43.334 76 50.001 76
s17.5 -3.83301 32.5 -11.5s22.5 -14.167 22.5 -19.5c0 14 -1.66699 21 -5 21c-6.66699 0 -21 -34.333 -43 -103c-32.667 -99.333 -49 -163.333 -49 -192c0 -144.667 99.333 -217 298 -217c182 0 344.667 28 488 84c4.66699 2 7.33398 6 8.00098 12
c0 5.33301 -1.66699 9 -5 11c-14 9.33301 -65.333 27.666 -154 54.999c-72 22.667 -108 42.667 -108 60c0 16.667 7 52 21 106c14.667 56.667 26.334 88.667 35.001 96c22.667 19.333 53.667 37.666 93 54.999c48 20.667 92.333 31 133 31h147v-139z" />
    <glyph glyph-name="uFEF3" unicode="&#x6cc;" horiz-adv-x="433" arabic-form="initial" 
d="M335 278c0 -70.667 -28.166 -134.501 -84.499 -191.501s-119.833 -85.5 -190.5 -85.5h-94v139h69c42.667 0 84.667 6.66699 126 20c56.667 18.667 85 45.667 85 81c0 4 -12.667 26 -38 66s-38 61.333 -38 64c0 4 20 57 60 159
c3.33301 8.66699 6.66602 10.334 9.99902 5.00098c63.333 -95.333 95 -181 95 -257zM442.001 -253.001l-98 -102l-107 96l104 103zM220.001 -262.001l-99 -101l-105 95l103 103z" />
    <glyph glyph-name="uFEF4" unicode="&#x6cc;" horiz-adv-x="473" arabic-form="medial" 
d="M498 1h-76.002c-78 0 -138.333 35.333 -181 106c-51.333 -70.667 -120.666 -106 -207.999 -106h-59v139h46c126.667 0 190 68.333 190 205c8.66699 5.33301 20.334 8 35.001 8c14 0 24 -2.66699 30 -8c0 -78 9 -129.667 27 -155c23.333 -33.333 75 -50 155 -50h41v-139z
M441.998 -253l-98 -102l-107 96l104 103zM219.998 -262l-99 -101l-105 95l103 103z" />
    <glyph glyph-name="Hcircumflex" unicode="&#x622;" horiz-adv-x="459" arabic-form="final" 
d="M387 1363c0 -15.333 -22.666 -31.668 -67.999 -49.001c-38.667 -14.667 -68.667 -22.667 -90 -24c-31.333 -2 -62.666 -3.33301 -93.999 -4c-5.33301 -9.33301 -11.333 -25.666 -18 -48.999c-4.66699 -16 -10 -24 -16 -24c-27.333 0 -41 4.33301 -41 13
c0 23.333 3.66699 52 11 86c10 44.667 22.667 67 38 67c9.33301 0 23.166 -2.16699 41.499 -6.5s32.166 -6.5 41.499 -6.5c60 0 124 17.667 192 53c2 -7.33301 3 -26 3 -56zM484.001 0.998047l-60 0.000976562c-82 0 -136.667 48.667 -164 146
c-17.333 62 -26.666 165.333 -27.999 310c0 53.333 -1.66699 152.333 -5 297c-4 93.333 -16 181.666 -36 264.999c-11.333 46.667 -17 66.667 -17 60c0 8 30 45 90 111c8 8.66699 13.333 7 16 -5c32 -142.667 48 -327 48 -553v-268c0 -68 4.66699 -116.333 14 -145
c17.333 -52.667 51.666 -79 102.999 -79h39v-139z" />
    <glyph glyph-name="uFE84" unicode="&#x623;" horiz-adv-x="467" arabic-form="final" 
d="M353 1374c0.666992 -5.33301 -2.5 -18.334 -9.5 -39.001s-11.833 -31.334 -14.5 -32.001l-70 -12c-56.667 -15.333 -116.667 -42.333 -180 -81c0.666992 18 1.66699 36.333 3 55c16.667 12 44 27.333 82 46c-44.667 20.667 -67 46.334 -67 77.001
c0 24 17.167 51.833 51.5 83.5s63.5 47.5 87.5 47.5c32 0 64 -15 96 -45l-50 -50c-18.667 18.667 -37 28 -55 28c-12 0 -27 -4.66699 -45 -14s-27 -19.333 -27 -30c0 -11.333 10.5 -24.666 31.5 -39.999s37.5 -23 49.5 -23c4 0 22 4.5 54 13.5s53 14.167 63 15.5z
M493 0.999023h-60c-82.667 0 -137.334 48.667 -164.001 146c-17.333 62.667 -26.666 166 -27.999 310c0 53.333 -1.66699 152.333 -5 297c-4 94 -16 182.333 -36 265c-12 49.333 -18 69.333 -18 60c0 8 30.333 45 91 111c8 8.66699 13.333 7 16 -5
c31.333 -142.667 47 -327 47 -553v-268c0 -68 4.66699 -116.333 14 -145c17.333 -52.667 52 -79 104 -79h39v-139z" />
    <glyph glyph-name="uFE86" unicode="&#x624;" horiz-adv-x="694" arabic-form="final" 
d="M476 773c0.666992 -7.33301 -2.83301 -23 -10.5 -47s-13.834 -36.333 -18.501 -37c-34.667 -6.66699 -62.334 -11.667 -83.001 -15c-68 -18.667 -139.333 -51 -214 -97c0.666992 22 2.33398 44 5.00098 66c18 14 50 32 96 54c-53.333 26.667 -80 57.667 -80 93
c0 28 20.5 61 61.5 99s75.833 57 104.5 57c38.667 0 77 -18.333 115 -55l-59 -57c-25.333 22 -47.666 33 -66.999 33c-14.667 0 -32 -5.33301 -52 -16c-22.667 -12 -34 -24.333 -34 -37c0 -14.667 12.333 -31 37 -49s45 -27 61 -27c4.66699 1.33301 20 6 46 14
c32 10 62.667 17 92 21zM720 1h-92.999c-8 -65.333 -32.667 -139 -74 -221c-28 -55.333 -76 -123.333 -144 -204c-47.333 -56 -78.333 -84 -93 -84c-64.667 0 -130.667 18.667 -198 56c-16 8.66699 -24.333 14.667 -25 18c0 4 7.66699 9 23 15c92 35.333 175.333 86 250 152
c106 93.333 166.333 183 181 269h-124c-98 0 -164.333 18.333 -199 55c-6.66699 6.66699 -8.33398 48.667 -5.00098 126c3.33301 76.667 31.333 148 84 214c46 57.333 85 86 117 86c35.333 0 75.333 -24 120 -72c62 -66.667 95 -157 99 -271h81v-139zM551.001 144
c0 40 -15.668 82.333 -47.001 127c-34 48.667 -70 73 -108 73c-25.333 0 -46 -20.667 -62 -62c-12.667 -32.667 -19 -64.334 -19 -95.001c0 -16 23 -28 69 -36c74.667 -13.333 130.334 -15.666 167.001 -6.99902z" />
    <glyph glyph-name="uFE88" unicode="&#x625;" horiz-adv-x="476" arabic-form="final" 
d="M502 1l-59.999 0.000976562c-82.667 0 -137.334 48.667 -164.001 146c-18 65.333 -27.667 168.666 -29 309.999c0 53.333 -1.33301 152.333 -4 297c-3.33301 92 -15.333 180.333 -36 265c-11.333 46.667 -17 66.667 -17 60c0 10 30 47 90 111
c7.33301 8 12.333 6.33301 15 -5c32 -144 48 -328.333 48 -553v-268c0 -68 4.66699 -116.333 14 -145c17.333 -52.667 52 -79 104 -79h39v-139zM485.001 -239.999c0.666992 -5.33301 -2.33398 -18.332 -9.00098 -38.999s-11.667 -31.334 -15 -32.001
c-12.667 -2 -35.667 -6.33301 -69 -13c-52 -12 -112.333 -39 -181 -81c0.666992 18 2 36.667 4 56c16.667 11.333 43.667 26.666 81 45.999c-44 20.667 -66 46.334 -66 77.001c0 24.667 17.167 52.667 51.5 84s63.833 47 88.5 47c30.667 0 62.334 -15.333 95.001 -46
l-50 -49c-19.333 18.667 -38 28 -56 28c-12 0 -26.333 -4.66699 -43 -14c-19.333 -10 -29 -20.333 -29 -31c0 -12 11 -25.667 33 -41c20 -14.667 36.667 -22 50 -22c7.33301 0 25.333 4.33301 54 13c32 10 52.333 15.667 61 17z" />
    <glyph glyph-name="uFE8A" unicode="&#x626;" horiz-adv-x="1165" arabic-form="final" 
d="M1191 1l-168.002 0.00195312c-54.667 0 -106.334 -15.333 -155.001 -46c-14.667 -9.33301 -22 -16.333 -22 -21s7.33301 -9.33398 22 -14.001l132 -41c66.667 -22 100 -42.333 100 -61c0 -27.333 -3 -63.333 -9 -108c-7.33301 -57.333 -17 -89 -29 -95
c-38.667 -20.667 -106.667 -44.667 -204 -72c-133.333 -37.333 -253 -56 -359 -56c-98 0 -179.667 18.667 -245 56c-80 46 -120 114.333 -120 205c0 80 16 158.667 48 236c9.33301 22.667 24.333 53.334 45 92.001c26.667 50.667 43.334 76 50.001 76
s17.5 -3.83301 32.5 -11.5s22.5 -14.167 22.5 -19.5c0 14 -1.66699 21 -5 21c-6.66699 0 -21 -34.333 -43 -103c-32.667 -99.333 -49 -163.333 -49 -192c0 -144.667 99.333 -217 298 -217c182 0 344.667 28 488 84c4.66699 2 7.33398 6 8.00098 12
c0 5.33301 -1.66699 9 -5 11c-14 9.33301 -65.333 27.666 -154 54.999c-72 22.667 -108 42.667 -108 60c0 16.667 7 52 21 106c14.667 56.667 26.334 88.667 35.001 96c22.667 19.333 53.667 37.666 93 54.999c48 20.667 92.333 31 133 31h147v-139zM519.998 441.002
c0.666992 -7.33301 -3.00195 -23.167 -11.002 -47.5s-13.667 -36.5 -17 -36.5c-15.333 -2 -43.333 -7 -84 -15c-60 -14 -131 -46.333 -213 -97c0 21.333 1 43.333 3 66c20.667 15.333 53 33.666 97 54.999c-52.667 26 -79 56.667 -79 92c0 28 20.5 60.833 61.5 98.5
s75.833 56.5 104.5 56.5c38.667 0 76.667 -18 114 -54l-59 -57c-24 21.333 -46.333 32 -67 32c-15.333 0 -32.666 -5 -51.999 -15c-22.667 -11.333 -34 -23.666 -34 -36.999c0 -14.667 13 -31 39 -49c24 -17.333 44 -26 60 -26c36.667 10 82.334 21.333 137.001 34z" />
    <glyph glyph-name="uFE8B" unicode="&#x626;" horiz-adv-x="338" arabic-form="initial" 
d="M337 794c0.666992 -7.33301 -2.83301 -23.166 -10.5 -47.499s-13.834 -36.833 -18.501 -37.5c-15.333 -2 -42.666 -7 -81.999 -15c-60.667 -14 -132.334 -46 -215.001 -96c1.33301 21.333 3 43.333 5 66c20.667 15.333 53 33.666 97 54.999
c-53.333 24.667 -80 55.334 -80 92.001c0 28 20.333 60.833 61 98.5s75.334 56.5 104.001 56.5c39.333 0 78 -18.333 116 -55l-60 -56c-24.667 21.333 -47 32 -67 32c-14.667 0 -32 -5.33301 -52 -16c-22.667 -12 -34 -24.333 -34 -37c0 -14 13 -30.333 39 -49
c24 -17.333 43.667 -26 59 -26c10.667 0 32.667 5.33301 66 16c36.667 11.333 60.667 17.666 72 18.999zM335 278c0 -70.667 -28.166 -134.501 -84.499 -191.501s-119.833 -85.5 -190.5 -85.5h-94v139h69c42.667 0 84.667 6.66699 126 20c56.667 18.667 85 45.667 85 81
c0 4 -12.667 26 -38 66s-38 61.333 -38 64c0 4 20 57 60 159c3.33301 8.66699 6.66602 10.334 9.99902 5.00098c63.333 -95.333 95 -181 95 -257z" />
    <glyph glyph-name="uFE8C" unicode="&#x626;" horiz-adv-x="473" arabic-form="medial" 
d="M403 724c0.666992 -6.66699 -2.99902 -22.165 -10.999 -46.498s-14 -36.833 -18 -37.5c-15.333 -2 -43 -7 -83 -15c-61.333 -14 -132.666 -46 -213.999 -96c1.33301 21.333 3 43.333 5 66c15.333 12 47.666 30 96.999 54c-53.333 26 -80 57 -80 93
c0 28.667 20.167 61.5 60.5 98.5s75.166 55.5 104.499 55.5c39.333 0 78 -18 116 -54l-60 -57c-24 22 -46.333 33 -67 33c-14.667 0 -31.667 -5.33301 -51 -16c-22.667 -12 -34 -24.333 -34 -37c0 -14.667 12.333 -30.834 37 -48.501s44.667 -26.5 60 -26.5
c8.66699 0 30 5 64 15c37.333 11.333 62 17.666 74 18.999zM498.001 1.00195h-76.002c-78 0 -138.333 35.333 -181 106c-51.333 -70.667 -120.666 -106 -207.999 -106h-59v139h46c126.667 0 190 68.333 190 205c8.66699 5.33301 20.334 8 35.001 8c14 0 24 -2.66699 30 -8
c0 -78 9 -129.667 27 -155c23.333 -33.333 75 -50 155 -50h41v-139z" />
    <glyph glyph-name="uFE8E" unicode="&#x627;" horiz-adv-x="416" arabic-form="final" 
d="M441 1h-58.999c-82.667 0 -137.667 48.667 -165 146c-16.667 60 -26 163.333 -28 310c0 53.333 -2 152.333 -6 297c-4 94.667 -15.667 183 -35 265c-11.333 48 -17 68 -17 60c0 10.667 30 47.667 90 111c7.33301 8 12.333 6.33301 15 -5c32 -136.667 48 -321 48 -553
v-268c0 -66.667 5 -115 15 -145c17.333 -52.667 51.666 -79 102.999 -79h39v-139z" />
    <glyph glyph-name="uFE90" unicode="&#x628;" horiz-adv-x="1390" arabic-form="final" 
d="M1416 1h-60.001c-113.333 0 -172 54 -176 162c-68.667 -52.667 -163 -95.334 -283 -128.001c-108 -29.333 -211.333 -44 -310 -44c-304 0 -456 85.667 -456 257c0 52.667 16 115 48 187c28.667 64.667 48.334 97 59.001 97c5.33301 0 13.833 -3.66699 25.5 -11
s17.5 -13 17.5 -17c0 8.66699 -1 13.334 -3 14.001c-4 0 -12.333 -21.333 -25 -64c-19.333 -63.333 -29 -105.666 -29 -126.999c0 -130.667 133 -196 399 -196c78.667 0 184.667 14.333 318 43c64 14 124.333 37 181 69c33.333 19.333 59.666 49 78.999 89
c15.333 32 24 49.333 26 52c4.66699 0 14.334 -2.33301 29.001 -7s22 -8.33398 22 -11.001c0 20 -3.16699 6.83301 -9.5 -39.5s-9.5 -72.5 -9.5 -78.5c0 -72 35.667 -108 107 -108h50v-139zM764.999 -259l-101 -108l-117 100l109 112z" />
    <glyph glyph-name="uFE91" unicode="&#x628;" horiz-adv-x="338" arabic-form="initial" 
d="M335 278c0 -70.667 -28.166 -134.501 -84.499 -191.501s-119.833 -85.5 -190.5 -85.5h-94v139h69c42.667 0 84.667 6.66699 126 20c56.667 18.667 85 45.667 85 81c0 4 -12.667 26 -38 66s-38 61.333 -38 64c0 4 20 57 60 159
c3.33301 8.66699 6.66602 10.334 9.99902 5.00098c63.333 -95.333 95 -181 95 -257zM315.001 -255.001l-102 -107l-116 99l109 112z" />
    <glyph glyph-name="uFE92" unicode="&#x628;" horiz-adv-x="473" arabic-form="medial" 
d="M498 1h-76.002c-78 0 -138.333 35.333 -181 106c-51.333 -70.667 -120.666 -106 -207.999 -106h-59v139h46c126.667 0 190 68.333 190 205c8.66699 5.33301 20.334 8 35.001 8c14 0 24 -2.66699 30 -8c0 -78 9 -129.667 27 -155c23.333 -33.333 75 -50 155 -50h41v-139z
M361.998 -255l-101 -107l-117 99l109 112z" />
    <glyph glyph-name="uFE96" unicode="&#x62a;" horiz-adv-x="1390" arabic-form="final" 
d="M880 718l-99 -102l-106 95l103 104zM658 708l-99 -100l-106 95l104 103zM1416 1h-60.001c-113.333 0 -172 54 -176 162c-68.667 -52.667 -163 -95.334 -283 -128.001c-108 -29.333 -211.333 -44 -310 -44c-304 0 -456 85.667 -456 257c0 52.667 16 115 48 187
c28.667 64.667 48.334 97 59.001 97c5.33301 0 13.833 -3.66699 25.5 -11s17.5 -13 17.5 -17c0 8.66699 -1 13.334 -3 14.001c-4 0 -12.333 -21.333 -25 -64c-19.333 -63.333 -29 -105.666 -29 -126.999c0 -130.667 133 -196 399 -196c78.667 0 184.667 14.333 318 43
c64 14 124.333 37 181 69c33.333 19.333 59.666 49 78.999 89c15.333 32 24 49.333 26 52c4.66699 0 14.334 -2.33301 29.001 -7s22 -8.33398 22 -11.001c0 20 -3.16699 6.83301 -9.5 -39.5s-9.5 -72.5 -9.5 -78.5c0 -72 35.667 -108 107 -108h50v-139z" />
    <glyph glyph-name="uFE97" unicode="&#x62a;" horiz-adv-x="403" arabic-form="initial" 
d="M446 822l-99 -101l-105 94l103 104zM224 813l-98 -102l-106 96l103 102zM335 278c0 -70.667 -28.166 -134.501 -84.499 -191.501s-119.833 -85.5 -190.5 -85.5h-94v139h69c42.667 0 84.667 6.66699 126 20c56.667 18.667 85 45.667 85 81c0 4 -12.667 26 -38 66
s-38 61.333 -38 64c0 4 20 57 60 159c3.33301 8.66699 6.66602 10.334 9.99902 5.00098c63.333 -95.333 95 -181 95 -257z" />
    <glyph glyph-name="uFE98" unicode="&#x62a;" horiz-adv-x="473" arabic-form="medial" 
d="M446 718l-99 -102l-105 95l103 104zM224 708l-98 -100l-106 95l103 103zM498 1h-76.002c-78 0 -138.333 35.333 -181 106c-51.333 -70.667 -120.666 -106 -207.999 -106h-59v139h46c126.667 0 190 68.333 190 205c8.66699 5.33301 20.334 8 35.001 8
c14 0 24 -2.66699 30 -8c0 -78 9 -129.667 27 -155c23.333 -33.333 75 -50 155 -50h41v-139z" />
    <glyph glyph-name="uFE9A" unicode="&#x62b;" horiz-adv-x="1390" arabic-form="final" 
d="M804 767l-97 -90l-95 95l96 90zM911 586l-96 -90l-95 96l96 90zM696 588l-96 -90l-95 96l96 89zM1416 1h-60.001c-113.333 0 -172 54 -176 162c-68.667 -52.667 -163 -95.334 -283 -128.001c-108 -29.333 -211.333 -44 -310 -44c-304 0 -456 85.667 -456 257
c0 52.667 16 115 48 187c28.667 64.667 48.334 97 59.001 97c5.33301 0 13.833 -3.66699 25.5 -11s17.5 -13 17.5 -17c0 8.66699 -1 13.334 -3 14.001c-4 0 -12.333 -21.333 -25 -64c-19.333 -63.333 -29 -105.666 -29 -126.999c0 -130.667 133 -196 399 -196
c78.667 0 184.667 14.333 318 43c64 14 124.333 37 181 69c33.333 19.333 59.666 49 78.999 89c15.333 32 24 49.333 26 52c4.66699 0 14.334 -2.33301 29.001 -7s22 -8.33398 22 -11.001c0 20 -3.16699 6.83301 -9.5 -39.5s-9.5 -72.5 -9.5 -78.5
c0 -72 35.667 -108 107 -108h50v-139z" />
    <glyph glyph-name="uFE9B" unicode="&#x62b;" horiz-adv-x="395" arabic-form="initial" 
d="M290 934l-97 -91l-96 95l98 91zM397 753l-97 -90l-95 96l97 89zM182 755l-97 -90l-95 95l97 90zM335 278c0 -70.667 -28.166 -134.501 -84.499 -191.501s-119.833 -85.5 -190.5 -85.5h-94v139h69c42.667 0 84.667 6.66699 126 20c56.667 18.667 85 45.667 85 81
c0 4 -12.667 26 -38 66s-38 61.333 -38 64c0 4 20 57 60 159c3.33301 8.66699 6.66602 10.334 9.99902 5.00098c63.333 -95.333 95 -181 95 -257z" />
    <glyph glyph-name="uFE9C" unicode="&#x62b;" horiz-adv-x="473" arabic-form="medial" 
d="M336 767l-97 -90l-95 95l97 90zM444 586l-98 -90l-95 96l97 90zM229 588l-98 -90l-95 96l97 89zM498 1h-76.002c-78 0 -138.333 35.333 -181 106c-51.333 -70.667 -120.666 -106 -207.999 -106h-59v139h46c126.667 0 190 68.333 190 205
c8.66699 5.33301 20.334 8 35.001 8c14 0 24 -2.66699 30 -8c0 -78 9 -129.667 27 -155c23.333 -33.333 75 -50 155 -50h41v-139z" />
    <glyph glyph-name="uFE9E" unicode="&#x62c;" horiz-adv-x="1048" arabic-form="final" 
d="M1074 1l-72.999 0.00195312c-96 0 -165 38 -207 114c-22 40 -33 117 -33 231c-176 -45.333 -310.667 -120.333 -404 -225c-58.667 -66 -88 -137.667 -88 -215c0 -202.667 164.667 -304 494 -304c86 0 179.333 8.66699 280 26
c20.667 3.33301 32.334 3.66602 35.001 0.999023c2.66699 -2 -0.333008 -9 -9 -21c-38 -50.667 -59.667 -77.334 -65 -80.001c-66.667 -32 -181.334 -48 -344.001 -48c-138 0 -254.667 25.667 -350 77c-119.333 64 -179 159.333 -179 286c0 229.333 158 409 474 539
c-136 45.333 -232 68 -288 68c-30.667 0 -63 -32.667 -97 -98l-51 12c30.667 74.667 53.667 125.667 69 153c32 56 62.667 84 92 84c34 0 106.833 -17.667 218.5 -53s196.167 -53 253.5 -53c70.667 0 139.667 7.66699 207 23c12 2.66699 19 3 21 1
c1.33301 -2 0.333008 -8 -3 -18c-8.66699 -25.333 -25.667 -67 -51 -125c-36.667 -2 -85.334 -7.33301 -146.001 -16c0 -146.667 62.667 -220 188 -220h56v-139zM679.001 -59.998l-102 -108l-116 100l109 112z" />
    <glyph glyph-name="uFE9F" unicode="&#x62c;" horiz-adv-x="841" arabic-form="initial" 
d="M830 273c-4 -6.66699 -22.334 -40.999 -55.001 -102.999c-28.667 4 -55.667 6 -81 6c-62 0 -118 -10.667 -168 -32c-26.667 -12 -75.334 -32.667 -146.001 -62c-138.667 -54 -245 -81 -319 -81h-87v139h74c54 0 133 11.667 237 35c112.667 25.333 197.334 53 254.001 83
c-40 20.667 -112.333 66 -217 136c-86 57.333 -133 86 -141 86c-18 0 -50 -32.333 -96 -97l-41 27c61.333 140.667 113.333 211 156 211c34 0 86.333 -27.667 157 -83c108.667 -84.667 178 -136.334 208 -155.001c90 -55.333 174.667 -83 254 -83c11.333 0 18.333 -1 21 -3
s-0.666016 -10 -9.99902 -24zM478.999 -249.999l-101 -107l-116 99l108 112z" />
    <glyph glyph-name="uFEA0" unicode="&#x62c;" horiz-adv-x="1084" arabic-form="medial" 
d="M1111 1h-44.999c-127.333 0 -215.333 32 -264 96c-30.667 40 -46 121.667 -46 245c-4 -2 -86.667 -60.333 -248 -175c-155.333 -110.667 -292.333 -166 -411 -166h-123v139h112c143.333 0 320.333 79.333 531 238c-44.667 6 -123.334 31 -236.001 75
c-106 41.333 -165.333 62 -178 62c-20 0 -41.5 -15.833 -64.5 -47.5s-34.167 -47.5 -33.5 -47.5l-50 12c63.333 152 116.666 228 159.999 228c18.667 0 96.167 -26.833 232.5 -80.5s240.5 -80.5 312.5 -80.5c100.667 0 182.334 7.66699 245.001 23
c12.667 3.33301 19.667 4 21 2c0.666992 -3.33301 -0.333008 -9.33301 -3 -18c-9.33301 -28 -28.666 -67.333 -57.999 -118c-56.667 -4.66699 -106.334 -12.667 -149.001 -24c0 -149.333 85.333 -224 256 -224h39v-139zM705.001 -259l-102 -108l-116 100l109 112z" />
    <glyph glyph-name="uFEA2" unicode="&#x62d;" horiz-adv-x="1048" arabic-form="final" 
d="M1074 1l-72.999 0.00195312c-96 0 -165 38 -207 114c-22 40 -33 117 -33 231c-176 -45.333 -310.667 -120.333 -404 -225c-58.667 -66 -88 -137.667 -88 -215c0 -202.667 164.667 -304 494 -304c86 0 179.333 8.66699 280 26
c20.667 3.33301 32.334 3.66602 35.001 0.999023c2.66699 -2 -0.333008 -9 -9 -21c-38 -50.667 -59.667 -77.334 -65 -80.001c-66.667 -32 -181.334 -48 -344.001 -48c-138 0 -254.667 25.667 -350 77c-119.333 64 -179 159.333 -179 286c0 229.333 158 409 474 539
c-136 45.333 -232 68 -288 68c-30.667 0 -63 -32.667 -97 -98l-51 12c30.667 74.667 53.667 125.667 69 153c32 56 62.667 84 92 84c34 0 106.833 -17.667 218.5 -53s196.167 -53 253.5 -53c70.667 0 139.667 7.66699 207 23c12 2.66699 19 3 21 1
c1.33301 -2 0.333008 -8 -3 -18c-8.66699 -25.333 -25.667 -67 -51 -125c-36.667 -2 -85.334 -7.33301 -146.001 -16c0 -146.667 62.667 -220 188 -220h56v-139z" />
    <glyph glyph-name="uFEA3" unicode="&#x62d;" horiz-adv-x="841" arabic-form="initial" 
d="M830 273c-4 -6.66699 -22.334 -40.999 -55.001 -102.999c-28.667 4 -55.667 6 -81 6c-62 0 -118 -10.667 -168 -32c-26.667 -12 -75.334 -32.667 -146.001 -62c-138.667 -54 -245 -81 -319 -81h-87v139h74c54 0 133 11.667 237 35c112.667 25.333 197.334 53 254.001 83
c-40 20.667 -112.333 66 -217 136c-86 57.333 -133 86 -141 86c-18 0 -50 -32.333 -96 -97l-41 27c61.333 140.667 113.333 211 156 211c34 0 86.333 -27.667 157 -83c108.667 -84.667 178 -136.334 208 -155.001c90 -55.333 174.667 -83 254 -83c11.333 0 18.333 -1 21 -3
s-0.666016 -10 -9.99902 -24z" />
    <glyph glyph-name="uFEA4" unicode="&#x62d;" horiz-adv-x="1084" arabic-form="medial" 
d="M1111 1h-44.999c-127.333 0 -215.333 32 -264 96c-30.667 40 -46 121.667 -46 245c-4 -2 -86.667 -60.333 -248 -175c-155.333 -110.667 -292.333 -166 -411 -166h-123v139h112c143.333 0 320.333 79.333 531 238c-44.667 6 -123.334 31 -236.001 75
c-106 41.333 -165.333 62 -178 62c-20 0 -41.5 -15.833 -64.5 -47.5s-34.167 -47.5 -33.5 -47.5l-50 12c63.333 152 116.666 228 159.999 228c18.667 0 96.167 -26.833 232.5 -80.5s240.5 -80.5 312.5 -80.5c100.667 0 182.334 7.66699 245.001 23
c12.667 3.33301 19.667 4 21 2c0.666992 -3.33301 -0.333008 -9.33301 -3 -18c-9.33301 -28 -28.666 -67.333 -57.999 -118c-56.667 -4.66699 -106.334 -12.667 -149.001 -24c0 -149.333 85.333 -224 256 -224h39v-139z" />
    <glyph glyph-name="uFEA6" unicode="&#x62e;" horiz-adv-x="1048" arabic-form="final" 
d="M765 923l-101 -107l-117 100l109 112zM1074 1l-72.999 0.00195312c-96 0 -165 38 -207 114c-22 40 -33 117 -33 231c-176 -45.333 -310.667 -120.333 -404 -225c-58.667 -66 -88 -137.667 -88 -215c0 -202.667 164.667 -304 494 -304c86 0 179.333 8.66699 280 26
c20.667 3.33301 32.334 3.66602 35.001 0.999023c2.66699 -2 -0.333008 -9 -9 -21c-38 -50.667 -59.667 -77.334 -65 -80.001c-66.667 -32 -181.334 -48 -344.001 -48c-138 0 -254.667 25.667 -350 77c-119.333 64 -179 159.333 -179 286c0 229.333 158 409 474 539
c-136 45.333 -232 68 -288 68c-30.667 0 -63 -32.667 -97 -98l-51 12c30.667 74.667 53.667 125.667 69 153c32 56 62.667 84 92 84c34 0 106.833 -17.667 218.5 -53s196.167 -53 253.5 -53c70.667 0 139.667 7.66699 207 23c12 2.66699 19 3 21 1
c1.33301 -2 0.333008 -8 -3 -18c-8.66699 -25.333 -25.667 -67 -51 -125c-36.667 -2 -85.334 -7.33301 -146.001 -16c0 -146.667 62.667 -220 188 -220h56v-139z" />
    <glyph glyph-name="uFEA7" unicode="&#x62e;" horiz-adv-x="841" arabic-form="initial" 
d="M470 928l-100 -107l-117 100l108 111zM830 273c-4 -6.66699 -22.334 -40.999 -55.001 -102.999c-28.667 4 -55.667 6 -81 6c-62 0 -118 -10.667 -168 -32c-26.667 -12 -75.334 -32.667 -146.001 -62c-138.667 -54 -245 -81 -319 -81h-87v139h74c54 0 133 11.667 237 35
c112.667 25.333 197.334 53 254.001 83c-40 20.667 -112.333 66 -217 136c-86 57.333 -133 86 -141 86c-18 0 -50 -32.333 -96 -97l-41 27c61.333 140.667 113.333 211 156 211c34 0 86.333 -27.667 157 -83c108.667 -84.667 178 -136.334 208 -155.001
c90 -55.333 174.667 -83 254 -83c11.333 0 18.333 -1 21 -3s-0.666016 -10 -9.99902 -24z" />
    <glyph glyph-name="uFEA8" unicode="&#x62e;" horiz-adv-x="1084" arabic-form="medial" 
d="M687 936l-101 -107l-116 100l108 112zM1111 1h-44.999c-127.333 0 -215.333 32 -264 96c-30.667 40 -46 121.667 -46 245c-4 -2 -86.667 -60.333 -248 -175c-155.333 -110.667 -292.333 -166 -411 -166h-123v139h112c143.333 0 320.333 79.333 531 238
c-44.667 6 -123.334 31 -236.001 75c-106 41.333 -165.333 62 -178 62c-20 0 -41.5 -15.833 -64.5 -47.5s-34.167 -47.5 -33.5 -47.5l-50 12c63.333 152 116.666 228 159.999 228c18.667 0 96.167 -26.833 232.5 -80.5s240.5 -80.5 312.5 -80.5
c100.667 0 182.334 7.66699 245.001 23c12.667 3.33301 19.667 4 21 2c0.666992 -3.33301 -0.333008 -9.33301 -3 -18c-9.33301 -28 -28.666 -67.333 -57.999 -118c-56.667 -4.66699 -106.334 -12.667 -149.001 -24c0 -149.333 85.333 -224 256 -224h39v-139z" />
    <glyph glyph-name="uFEAA" unicode="&#x62f;" horiz-adv-x="780" arabic-form="final" 
d="M806 1l-47 0.000976562c-44.667 0 -83.334 26.667 -116.001 80c-21.333 34.667 -35.666 70 -42.999 106c-22 -74.667 -39 -115.667 -51 -123c-33.333 -20 -81 -37.333 -143 -52c-58.667 -13.333 -109.334 -20 -152.001 -20c-64 0 -103.667 5 -119 15
c-2 17.333 -3 35.666 -3 54.999c0 48.667 6 100.334 18 155.001c1.33301 4.66699 8 7 20 7s18.667 -2.33301 20 -7c2.66699 -35.333 7.33398 -57 14.001 -65c11.333 -13.333 41.333 -20 90 -20c36.667 0 89.667 10.333 159 31c74 22 116.333 43 127 63l-140 441
c2.66699 18.667 24.667 67.667 66 147c6 11.333 10.333 10.666 13 -2.00098l85 -339c28.667 -114 48.667 -185.333 60 -214c30.667 -79.333 66.667 -119 108 -119h34v-139z" />
    <glyph glyph-name="uFEAC" unicode="&#x630;" horiz-adv-x="780" arabic-form="final" 
d="M553 1119l-102 -108l-116 100l109 112zM806 1l-47 0.000976562c-44.667 0 -83.334 26.667 -116.001 80c-21.333 34.667 -35.666 70 -42.999 106c-22 -74.667 -39 -115.667 -51 -123c-33.333 -20 -81 -37.333 -143 -52c-58.667 -13.333 -109.334 -20 -152.001 -20
c-64 0 -103.667 5 -119 15c-2 17.333 -3 35.666 -3 54.999c0 48.667 6 100.334 18 155.001c1.33301 4.66699 8 7 20 7s18.667 -2.33301 20 -7c2.66699 -35.333 7.33398 -57 14.001 -65c11.333 -13.333 41.333 -20 90 -20c36.667 0 89.667 10.333 159 31
c74 22 116.333 43 127 63l-140 441c2.66699 18.667 24.667 67.667 66 147c6 11.333 10.333 10.666 13 -2.00098l85 -339c28.667 -114 48.667 -185.333 60 -214c30.667 -79.333 66.667 -119 108 -119h34v-139z" />
    <glyph glyph-name="uFEAE" unicode="&#x631;" horiz-adv-x="696" arabic-form="final" 
d="M722 1h-31.001c-48.667 0 -84.667 13.667 -108 41c-7.33301 -80 -41.666 -179 -102.999 -297c-25.333 -48.667 -56.666 -96.667 -93.999 -144c-50.667 -64 -90 -96 -118 -96c-38 0 -97.667 15 -179 45c-12.667 4.66699 -19.334 8.66699 -20.001 12
c0 3.33301 6.66699 8 20 14c92.667 42 183.334 105.667 272.001 191c97.333 94 146 174.333 146 241c0 46.667 -43.667 121.334 -131 224.001c0 -13.333 18 38 54 154c3.33301 11.333 8.33301 12.666 15 3.99902l87 -139c47.333 -74 93.666 -111 138.999 -111h51v-139z" />
    <glyph glyph-name="uFEB0" unicode="&#x632;" horiz-adv-x="696" arabic-form="final" 
d="M561 711l-101 -107l-116 100l108 111zM732 1l-33 -0.000976562c-48 0 -84 13.667 -108 41c-6 -77.333 -40 -176.333 -102 -297c-22.667 -44.667 -54.334 -92.667 -95.001 -144c-50 -64 -89.333 -96 -118 -96c-36 0 -95.333 15 -178 45
c-13.333 4.66699 -20.333 8.66699 -21 12c2 4 9 8.66699 21 14c92.667 42.667 183.334 106.334 272.001 191.001c97.333 93.333 146 173.666 146 240.999c0 46.667 -44 121.334 -132 224.001c0 -6 18 45.333 54 154c4 12.667 9.33301 14 16 4l87 -139
c46.667 -74 93 -111 139 -111h52v-139z" />
    <glyph glyph-name="uFEB2" unicode="&#x633;" horiz-adv-x="1798" arabic-form="final" 
d="M1824 1l-42.0029 -0.00195312c-66.667 0 -118 33 -154 99c-44 -66 -101 -99 -171 -99c-32.667 0 -63 9.83301 -91 29.5s-46 45.167 -54 76.5c-38 -70.667 -91.667 -106 -161 -106c-35.333 0 -64 8.33301 -86 25c6.66699 -81.333 7.33398 -141.666 2.00098 -180.999
c-6.66699 -48 -19.334 -86 -38.001 -114c-47.333 -69.333 -132.666 -127.666 -255.999 -174.999c-111.333 -42.667 -214.333 -64 -309 -64c-94 0 -171.333 22.667 -232 68c-67.333 50 -101 120.667 -101 212c0 82 33.333 188.333 100 319c22.667 44 36.334 66 41.001 66
c7.33301 0 17.833 -3.16699 31.5 -9.5s20.5 -12.833 20.5 -19.5c0 12.667 -1.33301 19.334 -4 20.001c-5.33301 0 -17.666 -35.333 -36.999 -106c-27.333 -101.333 -41 -165.666 -41 -192.999c0 -137.333 89 -206 267 -206c71.333 0 154.333 16.667 249 50
c102 36 174.667 77.333 218 124c5.33301 4.66699 8 22 8 52c0 50 -10.333 108.667 -31 176c-20 65.333 -43.667 119.666 -71 162.999c0 5.33301 18 59.333 54 162c5.33301 15.333 11.666 15.333 18.999 0l74 -158c28 -47.333 67.333 -71 118 -71c82.667 0 131 68 145 204
c9.33301 7.33301 19.333 11 30 11s21.667 -3.66699 33 -11c0 -70.667 4.33301 -118.334 13 -143.001c14.667 -41.333 46.667 -62 96 -62c93.333 0 140 69.333 140 208c10 6 20.333 9 31 9s21.667 -3 33 -9c4.66699 -86 9.33398 -136 14.001 -150
c12.667 -38.667 43.667 -58 93 -58h49v-139z" />
    <glyph glyph-name="uFEB3" unicode="&#x633;" horiz-adv-x="932" arabic-form="initial" 
d="M931 266c0 -51.333 -24.6641 -107.001 -73.9971 -167.001c-54 -65.333 -112 -98 -174 -98c-35.333 0 -67.166 10.5 -95.499 31.5s-46.5 48.5 -54.5 82.5c-41.333 -76 -93.666 -114 -156.999 -114c-68.667 0 -122 37 -160 111c-42 -74 -98 -111 -168 -111h-74v139h42
c120.667 0 181 68.667 181 206c10.667 6 22 9 34 9c11.333 0 21.666 -3 30.999 -9c0 -84.667 5.33301 -137 16 -157c17.333 -32 45.666 -48 84.999 -48c86.667 0 135 68 145 204c10 6 20.333 9 31 9c11.333 0 22.333 -3 33 -9c0 -67.333 5.66699 -114.333 17 -141
c17.333 -40.667 51.666 -61 102.999 -61c37.333 0 73.333 13 108 39c30 22.667 45 42.334 45 59.001c0 12 -28.667 57.667 -86 137l61 146c7.33301 16.667 14.666 18.667 21.999 6c17.333 -29.333 35.666 -70 54.999 -122c22.667 -60.667 34 -108 34 -142z" />
    <glyph glyph-name="uFEB4" unicode="&#x633;" horiz-adv-x="1053" arabic-form="medial" 
d="M1079 1h-50.002c-63.333 0 -114.666 35.667 -153.999 107c-40 -71.333 -97 -107 -171 -107c-32.667 0 -63.334 10.5 -92.001 31.5s-47 47.167 -55 78.5c-40 -73.333 -93.333 -110 -160 -110c-78 0 -136.333 36.333 -175 109c-40.667 -72.667 -98.667 -109 -174 -109h-74
v139h42c124 0 186 68.667 186 206c11.333 7.33301 22 11 32 11c10.667 0 21.334 -3.66699 32.001 -11c0 -85.333 5.33301 -137.666 16 -156.999c18 -32 55.333 -48 112 -48c94 0 141 68 141 204c10.667 6 21.667 9 33 9c10.667 0 21.334 -3 32.001 -9
c0 -63.333 4.33301 -108 13 -134c16 -47.333 48.667 -71 98 -71c94 0 141 69.333 141 208c7.33301 4.66699 18 7 32 7c13.333 0 24.333 -2.33301 33 -7c0 -64.667 3.66699 -109.334 11 -134.001c14.667 -49.333 46 -74 94 -74h57v-139z" />
    <glyph glyph-name="uFEB6" unicode="&#x634;" horiz-adv-x="1798" arabic-form="final" 
d="M1494 865l-97 -90l-96 95l97 90zM1601 684l-97 -89l-95 95l97 90zM1386 686l-97 -90l-95 96l97 90zM1824 1l-42.0029 -0.00195312c-66.667 0 -118 33 -154 99c-44 -66 -101 -99 -171 -99c-32.667 0 -63 9.83301 -91 29.5s-46 45.167 -54 76.5
c-38 -70.667 -91.667 -106 -161 -106c-35.333 0 -64 8.33301 -86 25c6.66699 -81.333 7.33398 -141.666 2.00098 -180.999c-6.66699 -48 -19.334 -86 -38.001 -114c-47.333 -69.333 -132.666 -127.666 -255.999 -174.999c-111.333 -42.667 -214.333 -64 -309 -64
c-94 0 -171.333 22.667 -232 68c-67.333 50 -101 120.667 -101 212c0 82 33.333 188.333 100 319c22.667 44 36.334 66 41.001 66c7.33301 0 17.833 -3.16699 31.5 -9.5s20.5 -12.833 20.5 -19.5c0 12.667 -1.33301 19.334 -4 20.001
c-5.33301 0 -17.666 -35.333 -36.999 -106c-27.333 -101.333 -41 -165.666 -41 -192.999c0 -137.333 89 -206 267 -206c71.333 0 154.333 16.667 249 50c102 36 174.667 77.333 218 124c5.33301 4.66699 8 22 8 52c0 50 -10.333 108.667 -31 176
c-20 65.333 -43.667 119.666 -71 162.999c0 5.33301 18 59.333 54 162c5.33301 15.333 11.666 15.333 18.999 0l74 -158c28 -47.333 67.333 -71 118 -71c82.667 0 131 68 145 204c9.33301 7.33301 19.333 11 30 11s21.667 -3.66699 33 -11
c0 -70.667 4.33301 -118.334 13 -143.001c14.667 -41.333 46.667 -62 96 -62c93.333 0 140 69.333 140 208c10 6 20.333 9 31 9s21.667 -3 33 -9c4.66699 -86 9.33398 -136 14.001 -150c12.667 -38.667 43.667 -58 93 -58h49v-139z" />
    <glyph glyph-name="uFEB7" unicode="&#x634;" horiz-adv-x="932" arabic-form="initial" 
d="M719 922l-98 -91l-95 95l97 91zM826 741l-97 -90l-96 96l98 89zM611 743l-97 -90l-95 95l97 90zM931 266c0 -51.333 -24.6641 -107.001 -73.9971 -167.001c-54 -65.333 -112 -98 -174 -98c-35.333 0 -67.166 10.5 -95.499 31.5s-46.5 48.5 -54.5 82.5
c-41.333 -76 -93.666 -114 -156.999 -114c-68.667 0 -122 37 -160 111c-42 -74 -98 -111 -168 -111h-74v139h42c120.667 0 181 68.667 181 206c10.667 6 22 9 34 9c11.333 0 21.666 -3 30.999 -9c0 -84.667 5.33301 -137 16 -157c17.333 -32 45.666 -48 84.999 -48
c86.667 0 135 68 145 204c10 6 20.333 9 31 9c11.333 0 22.333 -3 33 -9c0 -67.333 5.66699 -114.333 17 -141c17.333 -40.667 51.666 -61 102.999 -61c37.333 0 73.333 13 108 39c30 22.667 45 42.334 45 59.001c0 12 -28.667 57.667 -86 137l61 146
c7.33301 16.667 14.666 18.667 21.999 6c17.333 -29.333 35.666 -70 54.999 -122c22.667 -60.667 34 -108 34 -142z" />
    <glyph glyph-name="uFEB8" unicode="&#x634;" horiz-adv-x="1053" arabic-form="medial" 
d="M784 860l-98 -89l-95 95l97 90zM891 680l-97 -90l-96 95l98 90zM676 682l-97 -90l-96 95l98 90zM1079 1h-50.002c-63.333 0 -114.666 35.667 -153.999 107c-40 -71.333 -97 -107 -171 -107c-32.667 0 -63.334 10.5 -92.001 31.5s-47 47.167 -55 78.5
c-40 -73.333 -93.333 -110 -160 -110c-78 0 -136.333 36.333 -175 109c-40.667 -72.667 -98.667 -109 -174 -109h-74v139h42c124 0 186 68.667 186 206c11.333 7.33301 22 11 32 11c10.667 0 21.334 -3.66699 32.001 -11c0 -85.333 5.33301 -137.666 16 -156.999
c18 -32 55.333 -48 112 -48c94 0 141 68 141 204c10.667 6 21.667 9 33 9c10.667 0 21.334 -3 32.001 -9c0 -63.333 4.33301 -108 13 -134c16 -47.333 48.667 -71 98 -71c94 0 141 69.333 141 208c7.33301 4.66699 18 7 32 7c13.333 0 24.333 -2.33301 33 -7
c0 -64.667 3.66699 -109.334 11 -134.001c14.667 -49.333 46 -74 94 -74h57v-139z" />
    <glyph glyph-name="uFEBA" unicode="&#x635;" horiz-adv-x="1980" arabic-form="final" 
d="M2006 1l-167.005 -0.00195312c-98 0 -192.667 13 -284 39c-90 -26 -171.333 -39 -244 -39h-184c-26.667 0 -47.334 8.33301 -62.001 25c6 -77.333 6 -137.666 0 -180.999c-7.33301 -51.333 -19.333 -89.333 -36 -114c-47.333 -69.333 -132.666 -127.333 -255.999 -174
c-109.333 -41.333 -212.333 -62 -309 -62c-94.667 0 -172 22 -232 66c-67.333 49.333 -101 119.666 -101 210.999c0 82 33.333 188.333 100 319c22.667 44 36.334 66 41.001 66c7.33301 0 17.833 -3.5 31.5 -10.5s20.5 -13.5 20.5 -19.5c0 12.667 -1.33301 19.334 -4 20.001
c-5.33301 0 -17.666 -35 -36.999 -105c-27.333 -100.667 -41 -165 -41 -193c0 -139.333 89.667 -209 269 -209c74.667 0 158.334 18.167 251.001 54.5s165.667 79.833 219 130.5c2 10 3 22 3 36c0 50 -10.167 109.833 -30.5 179.5s-44.166 125.5 -71.499 167.5
c9.33301 38.667 27.333 92.667 54 162c6 15.333 12.333 15.333 19 0c34.667 -76 59.334 -126 74.001 -150c18.667 -30 41.667 -54 69 -72c18 -12 35.667 -9 53 9l222 223c31.333 30.667 77 61.334 137 92.001c63.333 32.667 118.333 49 165 49c67.333 0 125 -21 173 -63
c50.667 -43.333 76 -98.333 76 -165c0 -15.333 -19.333 -42.666 -58 -81.999c-34 -34.667 -61 -58.334 -81 -71.001h221v-139zM1808 254.998c0 40 -21.332 76 -63.999 108c-39.333 29.333 -80 44 -122 44c-70 0 -147 -36.333 -231 -109
c-1.33301 -0.666992 -59 -54 -173 -160h229c91.333 0 177.666 16.667 258.999 50c68 28 102 50.333 102 67z" />
    </font>
</defs>
</svg>
