<?xml version="1.0" standalone="no"?>
<!DOCTYPE svg PUBLIC "-//W3C//DTD SVG 1.1//EN" "http://www.w3.org/Graphics/SVG/1.1/DTD/svg11.dtd" >
<svg>
<metadata>
Created by FontForge 20090914 at Tue Mar 15 11:15:06 2016
 By www-data
(c) 2000 Borna Rayaneh
</metadata>
<defs>
<font id="BMitraBold" horiz-adv-x="0" >
  <font-face 
    font-family="B Mitra"
    font-weight="700"
    font-stretch="normal"
    units-per-em="2048"
    panose-1="0 0 7 0 0 0 0 0 0 0"
    ascent="1638"
    descent="-410"
    bbox="-196 -1043 2414 2015"
    underline-thickness="100"
    underline-position="-650"
    unicode-range="U+0020-U+FEFC"
  />
<missing-glyph horiz-adv-x="1024" 
d="M128 0v1388h768v-1388h-768zM256 128h512v1132h-512v-1132z" />
    <glyph glyph-name="uE818" unicode="&#x651;&#x64b;" 
d="M399 1473c0 -85.333 -25.9961 -127.998 -77.9961 -127.998c-32.667 0 -53.334 19.333 -62.001 58c-14 -67.333 -44.333 -101 -91 -101c-37.333 0 -61.333 20.667 -72 62c-4.66699 18 -6.33398 54 -5.00098 108c6 2 22 8.66699 48 20
c3.33301 -74.667 14.666 -112 33.999 -112c24 0 39.333 18.667 46 56c1.33301 25.333 3 50.666 5 75.999l50 14c4 -67.333 17.333 -101 40 -101c18 0 28.333 15 31 45c-0.666992 7.33301 -1.33398 35.666 -2.00098 84.999l47 15c6 -38 9 -70.333 9 -97zM394.004 1822
l-312 -125v79l312 128v-82zM394.004 1657l-312 -125v80l312 127v-82z" />
    <glyph glyph-name="uFC5E" unicode="&#x651;&#x64c;" arabic-form="isolated" 
d="M415 1483c0 -85.333 -25.9961 -127.998 -77.9961 -127.998c-32.667 0 -53.334 19.333 -62.001 58c-14 -67.333 -44.333 -101 -91 -101c-37.333 0 -61.333 20.667 -72 62c-4.66699 18 -6.33398 54 -5.00098 108c6 2 22 8.66699 48 20
c3.33301 -74.667 14.666 -112 33.999 -112c24 0 39.333 18.667 46 56c1.33301 25.333 3 50.666 5 75.999l50 14c4 -67.333 17.333 -101 40 -101c18 0 28.333 15 31 45c-0.666992 7.33301 -1.33398 35.666 -2.00098 84.999l47 15c6 -38 9 -70.333 9 -97zM412.004 1802
c1.33301 -7.33301 2.00098 -14.667 2.00098 -22c0 -16.667 -2.66699 -32.667 -8 -48l-63 20c-25.333 -94 -82 -158.333 -170 -193c-1.33301 6 -1 30.667 1 74c1.33301 33.333 -2.33398 57.666 -11.001 72.999c-13.333 -8.66699 -35 -22 -65 -40l-6 88l85 44
c19.333 -22.667 29 -66.667 29 -132c32.667 10 63.667 44.333 93 103c-75.333 40 -113 68.333 -113 85c0 34.667 12.667 69.334 38 104.001c26.667 38 56.667 57 90 57c42 0 63 -32.667 63 -98c0 -27.333 -4 -60 -12 -98c5.33301 -1.33301 21 -7 47 -17zM329.005 1906
c0 32.667 -10.667 49 -32 49c-23.333 0 -42.333 -21.667 -57 -65c11.333 -10.667 36.333 -29 75 -55c9.33301 23.333 14 47 14 71z" />
    <glyph glyph-name="uFC5F" unicode="&#x651;&#x64d;" arabic-form="isolated" 
d="M411 1870c0 -85.333 -25.9961 -127.998 -77.9961 -127.998c-32.667 0 -53.334 19.333 -62.001 58c-14 -67.333 -44.333 -101 -91 -101c-37.333 0 -61.333 20.667 -72 62c-4.66699 18 -6.33398 54 -5.00098 108c6 2 22 8.66699 48 20
c3.33301 -74.667 14.666 -112 33.999 -112c24 0 39.333 18.667 46 56c1.33301 25.333 3 50.666 5 75.999l50 14c4 -67.333 17.333 -101 40 -101c18 0 28.333 15 31 45c-0.666992 7.33301 -1.33398 35.666 -2.00098 84.999l47 15c6 -38 9 -70.333 9 -97zM416.004 1582
l-313 -125v79l313 128v-82zM416.004 1417l-313 -125v79l313 128v-82z" />
    <glyph glyph-name="uFC60" unicode="&#x651;&#x64e;" arabic-form="isolated" 
d="M421 1467c0 -85.333 -25.9961 -127.998 -77.9961 -127.998c-32.667 0 -53.334 19.333 -62.001 58c-14 -67.333 -44.333 -101 -91 -101c-37.333 0 -61.333 20.667 -72 62c-4.66699 18 -6.33398 54 -5.00098 108c6 2 22 8.66699 48 20
c3.33301 -74.667 14.666 -112 33.999 -112c24 0 39.333 18.667 46 56c1.33301 25.333 3 50.666 5 75.999l50 14c4 -67.333 17.333 -101 40 -101c18 0 28.333 15 31 45c-0.666992 7.33301 -1.33398 35.666 -2.00098 84.999l47 15c6 -38 9 -70.333 9 -97zM418.004 1663
l-312 -125v79l312 128v-82z" />
    <glyph glyph-name="uFC61" unicode="&#x651;&#x64f;" arabic-form="isolated" 
d="M430 1478c0 -85.333 -25.9961 -127.998 -77.9961 -127.998c-32.667 0 -53.334 19.333 -62.001 58c-14 -67.333 -44.333 -101 -91 -101c-37.333 0 -61.333 20.667 -72 62c-4.66699 18 -6.33398 54 -5.00098 108c6 2 22 8.66699 48 20
c3.33301 -74.667 14.666 -112 33.999 -112c24 0 39.333 18.667 46 56c1.33301 25.333 3 50.666 5 75.999l50 14c4 -67.333 17.333 -101 40 -101c18 0 28.333 15 31 45c-0.666992 7.33301 -1.33398 35.666 -2.00098 84.999l47 15c6 -38 9 -70.333 9 -97zM434.004 1688
c-18.667 6.66699 -43.668 14.9971 -75.001 24.9971l-5 -6c-29.333 -35.333 -56 -62.333 -80 -81c-40 -31.333 -90 -56.666 -150 -75.999v82c80 20 139.667 53.333 179 100c-72.667 38.667 -109 62.334 -109 71.001c0 32.667 15 69.334 45 110.001
c33.333 45.333 69.333 68 108 68c42 0 63 -33.667 63 -101c0 -27.333 -7.66699 -61.333 -23 -102c20.667 -8.66699 36.334 -14 47.001 -16v-74zM358.003 1858c0 12.667 -4.33398 25.332 -13.001 37.999s-19 19 -31 19c-24.667 0 -46.667 -23.667 -66 -71
c28.667 -23.333 60.334 -41.666 95.001 -54.999c10 27.333 15 50.333 15 69z" />
    <glyph glyph-name="uFC62" unicode="&#x651;&#x650;" arabic-form="isolated" 
d="M402 1691c0 -85.333 -25.9961 -127.998 -77.9961 -127.998c-32.667 0 -53.334 19.333 -62.001 58c-14 -67.333 -44.333 -101 -91 -101c-37.333 0 -61.333 20.667 -72 62c-4.66699 18 -6.33398 54 -5.00098 108c6 2 22 8.66699 48 20
c3.33301 -74.667 14.666 -112 33.999 -112c24 0 39.333 18.667 46 56c1.33301 25.333 3 50.666 5 75.999l50 14c4 -67.333 17.333 -101 40 -101c18 0 28.333 15 31 45c-0.666992 7.33301 -1.33398 35.666 -2.00098 84.999l47 15c6 -38 9 -70.333 9 -97zM414.004 1378
l-313 -125v79l313 128v-82z" />
    <glyph glyph-name="uFDF2" unicode="&#xfedf;&#xfee0;&#xfeea;" horiz-adv-x="1682" arabic-form="isolated" 
d="M1255 1220c0 -8 -6.83301 -22.167 -20.5 -42.5s-24.167 -30.5 -31.5 -30.5c-10 74.667 -26.333 139 -49 193l79 65c14.667 -56 22 -117.667 22 -185zM1407 1179c5.33301 -134 -28.332 -201 -100.999 -201c-30 0 -54 16.667 -72 50
c-30.667 -61.333 -67.334 -92 -110.001 -92c-57.333 0 -86 58 -86 174h68c0 -56 11.333 -84 34 -84c37.333 0 56 32 56 96h66c0 -44 14 -66 42 -66c27.333 0 41 41 41 123h62zM1680 386c0 -85.333 -23.998 -166.663 -71.998 -243.996c-58 -93.333 -134 -140 -228 -140
c-97.333 0 -168 58 -212 174c-80.667 -136 -181.334 -204 -302.001 -204c-133.333 0 -210.666 102.667 -231.999 308c-22 -38 -40 -67.333 -54 -88c-29.333 -42.667 -51.333 -65.334 -66 -68.001c-187.333 0 -308 53.667 -362 161c4 22.667 16 58.667 36 108
s36.667 83.666 50 102.999c24.667 24.667 79.667 53.334 165 86.001c76.667 29.333 151.667 52.666 225 69.999v111l134 93c11.333 -39.333 17 -86 17 -140c0 -28 -2 -69.833 -6 -125.5s-6 -97.5 -6 -125.5c0 -66 6 -114.667 18 -146c19.333 -50.667 56.666 -76 111.999 -76
c35.333 0 75.333 10.667 120 32c52.667 24.667 79 53 79 85c1.33301 216 -5.33398 360 -20.001 432l184 104v-410c0 -66.667 5.33301 -114 16 -142c18 -46.667 55.333 -70 112 -70c30.667 0 63 8 97 24c41.333 19.333 61 42.666 59 69.999c-8 108 -28.667 312 -62 612
l166 170c21.333 -232.667 32 -487.334 32 -764.001zM639.004 340.003l0.000976562 200c-140 -14 -249.667 -58.667 -329 -134c17.333 -16 48.666 -30.667 93.999 -44c56 -16.667 115.333 -25 178 -25c18.667 0 37.667 1 57 3z" />
    <glyph glyph-name="uFEF5" unicode="&#xfedf;&#xfe82;" horiz-adv-x="1130" arabic-form="isolated" 
d="M1122 1062c4 -9.33301 6.00098 -15.335 6.00098 -18.002c0 -8.66699 -22.667 -13 -68 -13c-19.333 -166.667 -44.333 -289.667 -75 -369c-35.333 -91.333 -93.666 -175.333 -174.999 -252l64 -122c2 -32.667 3 -63.667 3 -93c0 -75.333 -6.33301 -138.333 -19 -189
c-116 -28 -228.667 -42 -338 -42c-52.667 0 -111.334 2 -176.001 6c22.667 116.667 33.334 215.334 32.001 296.001c164.667 74.667 256.667 127.334 276 158.001c-51.333 74.667 -113.333 151 -186 229c-84.667 90.667 -157.334 155 -218.001 193l-42 -62
c-36 67.333 -74.667 131 -116 191l106 337c99.333 -116 203.666 -257 312.999 -423l245 -385c70.667 81.333 106 207 106 377c0 105.333 -16 211 -48 317l193 125c8.66699 5.33301 14.667 8.33301 18 9c2 -2 4.66699 -8 8 -18c24.667 -82 55 -166 91 -252zM748.001 239.998
c1.33301 25.333 -12.667 56.333 -42 93l-198 -120c24 -8 53 -12 87 -12c69.333 0 120.333 13 153 39zM388.001 1522c0 -16 -22.333 -32.335 -67 -49.002c-37.333 -14 -67.333 -21.667 -90 -23c-20 -1.33301 -51.667 -3 -95 -5c-6.66699 -11.333 -13 -27.666 -19 -48.999
c-4.66699 -16 -9.66699 -24 -15 -24c-27.333 0 -41 4.33301 -41 13c0 31.333 5 65.333 15 102c8.66699 33.333 20 50 34 50c9.33301 0 23 -2.16699 41 -6.5s31.667 -6.5 41 -6.5c60 0 124.667 17.667 194 53c1.33301 -7.33301 2 -25.666 2 -54.999z" />
    <glyph glyph-name="uFEF6" unicode="&#xfee0;&#xfe82;" horiz-adv-x="1250" arabic-form="final" 
d="M1281 1h-61.9971c-88 0 -153.667 35.667 -197 107c-36.667 60 -54 136.333 -52 229l9 452c-112 -380 -236 -655 -372 -825c-89.333 -32.667 -188 -49 -296 -49c-52.667 0 -104.334 4.33301 -155.001 13c-19.333 3.33301 -29 7 -29 11c0 4.66699 9.66699 11.667 29 21
c133.333 65.333 268.666 173.666 405.999 324.999c-34.667 124 -79.334 230.667 -134.001 320c-38.667 62.667 -94 133 -166 211v-76l-173 157l44 372c143.333 -108.667 252 -221.334 326 -338.001c84.667 -133.333 150.667 -309.666 198 -528.999
c168 249.333 252 480.333 252 693c0 37.333 -2.33301 74.333 -7 111c56 32.667 129.667 82.334 221 149.001c0 -277.333 -6.33301 -552 -19 -824c-0.666992 -14 -1 -32.333 -1 -55c0 -92 13.667 -151.333 41 -178c16 -15.333 47.667 -23 95 -23h42v-274zM388.003 1522
c0 -16 -22.333 -32.335 -67 -49.002c-37.333 -14 -67.333 -21.667 -90 -23c-20 -1.33301 -51.667 -3 -95 -5c-6.66699 -11.333 -13 -27.666 -19 -48.999c-4.66699 -16 -9.66699 -24 -15 -24c-27.333 0 -41 4.33301 -41 13c0 31.333 5 65.333 15 102
c8.66699 33.333 20 50 34 50c9.33301 0 23 -2.16699 41 -6.5s31.667 -6.5 41 -6.5c60 0 124.667 17.667 194 53c1.33301 -7.33301 2 -25.666 2 -54.999z" />
    <glyph glyph-name="uFEF7" unicode="&#xfedf;&#xfe84;" horiz-adv-x="1129" arabic-form="isolated" 
d="M1122 1062c4 -9.33301 6.00098 -15.335 6.00098 -18.002c0 -8.66699 -22.667 -13 -68 -13c-19.333 -166.667 -44.333 -289.667 -75 -369c-35.333 -91.333 -93.666 -175.333 -174.999 -252l64 -122c2 -32.667 3 -63.667 3 -93c0 -75.333 -6.33301 -138.333 -19 -189
c-116 -28 -228.667 -42 -338 -42c-52.667 0 -111.334 2 -176.001 6c22.667 116.667 33.334 215.334 32.001 296.001c164.667 74.667 256.667 127.334 276 158.001c-51.333 74.667 -113.333 151 -186 229c-84.667 90.667 -157.334 155 -218.001 193l-42 -62
c-36 67.333 -74.667 131 -116 191l106 337c99.333 -116 203.666 -257 312.999 -423l245 -385c70.667 81.333 106 207 106 377c0 105.333 -16 211 -48 317l193 125c8.66699 5.33301 14.667 8.33301 18 9c2 -2 4.66699 -8 8 -18c24.667 -82 55 -166 91 -252zM748.001 239.998
c1.33301 25.333 -12.667 56.333 -42 93l-198 -120c24 -8 53 -12 87 -12c69.333 0 120.333 13 153 39zM377.001 1582c0.666992 -6.66699 -3.00098 -22.165 -11.001 -46.498s-14 -36.833 -18 -37.5c-15.333 -2.66699 -43 -8 -83 -16c-60.667 -14 -132 -46 -214 -96
c1.33301 22 3 44 5 66c14 11.333 46 29.666 96 54.999c-53.333 26 -80 57 -80 93c0 27.333 20.667 59.833 62 97.5s76 56.5 104 56.5c40.667 0 79 -18 115 -54l-59 -58c-25.333 22.667 -47.666 34 -66.999 34c-14.667 0 -32 -5.33301 -52 -16
c-22.667 -12 -34 -24.333 -34 -37c0 -14.667 12.333 -30.834 37 -48.501s45 -26.5 61 -26.5c36.667 10 82.667 21.333 138 34z" />
    <glyph glyph-name="uFEF8" unicode="&#xfee0;&#xfe84;" horiz-adv-x="1252" arabic-form="final" 
d="M1281 1h-61.9971c-88 0 -153.667 35.667 -197 107c-36.667 60 -54 136.333 -52 229l9 452c-112 -380 -236 -655 -372 -825c-89.333 -32.667 -188 -49 -296 -49c-52.667 0 -104.334 4.33301 -155.001 13c-19.333 3.33301 -29 7 -29 11c0 4.66699 9.66699 11.667 29 21
c133.333 65.333 268.666 173.666 405.999 324.999c-34.667 124 -79.334 230.667 -134.001 320c-38.667 62.667 -94 133 -166 211v-76l-173 157l44 372c143.333 -108.667 252 -221.334 326 -338.001c84.667 -133.333 150.667 -309.666 198 -528.999
c168 249.333 252 480.333 252 693c0 37.333 -2.33301 74.333 -7 111c56 32.667 129.667 82.334 221 149.001c0 -277.333 -6.33301 -552 -19 -824c-0.666992 -14 -1 -32.333 -1 -55c0 -92 13.667 -151.333 41 -178c16 -15.333 47.667 -23 95 -23h42v-274zM367.003 1532
c0.666992 -6.66699 -3.00293 -22.1641 -11.0029 -46.4971s-14 -36.833 -18 -37.5c-15.333 -2.66699 -43 -8 -83 -16c-61.333 -14 -132.666 -46 -213.999 -96c0.666992 22 2.33398 44 5.00098 66c14 11.333 46 29.666 96 54.999c-53.333 25.333 -80 56.333 -80 93
c0 28 20.5 60.667 61.5 98s75.833 56 104.5 56c40.667 0 79 -18 115 -54l-59 -58c-25.333 22.667 -47.666 34 -66.999 34c-14.667 0 -32 -5.33301 -52 -16c-22.667 -12 -34 -24.333 -34 -37c0 -14.667 12.333 -30.834 37 -48.501s45 -26.5 61 -26.5c8.66699 0 30 5 64 15
c37.333 11.333 62 17.666 74 18.999z" />
    <glyph glyph-name="uFEF9" unicode="&#xfedf;&#xfe88;" horiz-adv-x="1129" arabic-form="isolated" 
d="M1122 1062c4 -9.33301 6.00098 -15.335 6.00098 -18.002c0 -8.66699 -22.667 -13 -68 -13c-19.333 -166.667 -44.333 -289.667 -75 -369c-35.333 -91.333 -93.666 -175.333 -174.999 -252l64 -122c2 -32.667 3 -63.667 3 -93c0 -75.333 -6.33301 -138.333 -19 -189
c-116 -28 -228.667 -42 -338 -42c-52.667 0 -111.334 2 -176.001 6c22.667 116.667 33.334 215.334 32.001 296.001c164.667 74.667 256.667 127.334 276 158.001c-51.333 74.667 -113.333 151 -186 229c-84.667 90.667 -157.334 155 -218.001 193l-42 -62
c-36 67.333 -74.667 131 -116 191l106 337c99.333 -116 203.666 -257 312.999 -423l245 -385c70.667 81.333 106 207 106 377c0 105.333 -16 211 -48 317l193 125c8.66699 5.33301 14.667 8.33301 18 9c2 -2 4.66699 -8 8 -18c24.667 -82 55 -166 91 -252zM748.001 239.998
c1.33301 25.333 -12.667 56.333 -42 93l-198 -120c24 -8 53 -12 87 -12c69.333 0 120.333 13 153 39zM567.001 -322.002c0.666992 -6.66699 -3 -22.166 -11 -46.499s-14 -36.833 -18 -37.5c-23.333 -4.66699 -50.666 -9.66699 -81.999 -15
c-68.667 -18.667 -140.334 -51 -215.001 -97c1.33301 22 3 44 5 66c16 12.667 48 31 96 55c-53.333 26 -80 57 -80 93c0 28 20.5 60.667 61.5 98s75.833 56 104.5 56c39.333 0 77.666 -18 114.999 -54l-59 -58c-25.333 22.667 -47.666 34 -66.999 34
c-14.667 0 -32 -5.33301 -52 -16c-22.667 -12 -34 -24.333 -34 -37c0 -14.667 12.333 -30.834 37 -48.501s45 -26.5 61 -26.5c38.667 14.667 84.667 26 138 34z" />
    <glyph glyph-name="uFEFA" unicode="&#xfee0;&#xfe88;" horiz-adv-x="1252" arabic-form="final" 
d="M1281 1h-61.9971c-88 0 -153.667 35.667 -197 107c-36.667 60 -54 136.333 -52 229l9 452c-112 -380 -236 -655 -372 -825c-89.333 -32.667 -188 -49 -296 -49c-52.667 0 -104.334 4.33301 -155.001 13c-19.333 3.33301 -29 7 -29 11c0 4.66699 9.66699 11.667 29 21
c133.333 65.333 268.666 173.666 405.999 324.999c-34.667 124 -79.334 230.667 -134.001 320c-38.667 62.667 -94 133 -166 211v-76l-173 157l44 372c143.333 -108.667 252 -221.334 326 -338.001c84.667 -133.333 150.667 -309.666 198 -528.999
c168 249.333 252 480.333 252 693c0 37.333 -2.33301 74.333 -7 111c56 32.667 129.667 82.334 221 149.001c0 -277.333 -6.33301 -552 -19 -824c-0.666992 -14 -1 -32.333 -1 -55c0 -92 13.667 -151.333 41 -178c16 -15.333 47.667 -23 95 -23h42v-274zM567.003 -322
c0.666992 -6.66699 -3 -22.166 -11 -46.499s-14 -36.833 -18 -37.5c-23.333 -4.66699 -50.666 -9.66699 -81.999 -15c-68.667 -18.667 -140.334 -51 -215.001 -97c1.33301 22 3 44 5 66c16 12.667 48 31 96 55c-53.333 26 -80 57 -80 93c0 28 20.5 60.667 61.5 98
s75.833 56 104.5 56c39.333 0 77.666 -18 114.999 -54l-59 -58c-25.333 22.667 -47.666 34 -66.999 34c-14.667 0 -32 -5.33301 -52 -16c-22.667 -12 -34 -24.333 -34 -37c0 -14.667 12.333 -30.834 37 -48.501s45 -26.5 61 -26.5c38.667 14.667 84.667 26 138 34z" />
    <glyph glyph-name="uFEFB" unicode="&#xfedf;&#xfe8e;" horiz-adv-x="1129" arabic-form="isolated" 
d="M1122 1062c4 -9.33301 6.00098 -15.335 6.00098 -18.002c0 -8.66699 -22.667 -13 -68 -13c-19.333 -166.667 -44.333 -289.667 -75 -369c-35.333 -91.333 -93.666 -175.333 -174.999 -252l64 -122c2 -32.667 3 -63.667 3 -93c0 -75.333 -6.33301 -138.333 -19 -189
c-116 -28 -228.667 -42 -338 -42c-52.667 0 -111.334 2 -176.001 6c22.667 116.667 33.334 215.334 32.001 296.001c164.667 74.667 256.667 127.334 276 158.001c-51.333 74.667 -113.333 151 -186 229c-84.667 90.667 -157.334 155 -218.001 193l-42 -62
c-36 67.333 -74.667 131 -116 191l106 337c99.333 -116 203.666 -257 312.999 -423l245 -385c70.667 81.333 106 207 106 377c0 105.333 -16 211 -48 317l193 125c8.66699 5.33301 14.667 8.33301 18 9c2 -2 4.66699 -8 8 -18c24.667 -82 55 -166 91 -252zM748.001 239.998
c1.33301 25.333 -12.667 56.333 -42 93l-198 -120c24 -8 53 -12 87 -12c69.333 0 120.333 13 153 39z" />
    <glyph glyph-name="uFEFC" unicode="&#xfee0;&#xfe8e;" horiz-adv-x="1252" arabic-form="final" 
d="M1281 1h-61.9971c-88 0 -153.667 35.667 -197 107c-36.667 60 -54 136.333 -52 229l9 452c-112 -380 -236 -655 -372 -825c-89.333 -32.667 -188 -49 -296 -49c-52.667 0 -104.334 4.33301 -155.001 13c-19.333 3.33301 -29 7 -29 11c0 4.66699 9.66699 11.667 29 21
c133.333 65.333 268.666 173.666 405.999 324.999c-34.667 124 -79.334 230.667 -134.001 320c-38.667 62.667 -94 133 -166 211v-76l-173 157l44 372c143.333 -108.667 252 -221.334 326 -338.001c84.667 -133.333 150.667 -309.666 198 -528.999
c168 249.333 252 480.333 252 693c0 37.333 -2.33301 74.333 -7 111c56 32.667 129.667 82.334 221 149.001c0 -277.333 -6.33301 -552 -19 -824c-0.666992 -14 -1 -32.333 -1 -55c0 -92 13.667 -151.333 41 -178c16 -15.333 47.667 -23 95 -23h42v-274z" />
    <glyph glyph-name="u0652_u064E.liga" unicode="&#x652;&#x64e;" horiz-adv-x="1" 
d="M182 1314l-7 -336l-74 31l5 337z" />
    <glyph glyph-name="u0652_u064B.liga" unicode="&#x652;&#x64b;" horiz-adv-x="1" 
d="M668 1113l-138 -138l-140 123l-128 -129l-147 129l138 141l140 -125l128 131z" />
    <glyph glyph-name="u0652_u064D.liga" unicode="&#x652;&#x64d;" horiz-adv-x="1" 
d="M852 -803l-138 -138l-140 123l-128 -129l-147 129l138 141l140 -125l128 131z" />
    <glyph glyph-name="u0622" unicode="&#x622;" horiz-adv-x="472" arabic-form="isolated" 
d="M482 1474c0 -17.333 -24.3311 -35 -72.998 -53c-39.333 -14.667 -71.666 -23 -96.999 -25c-39.333 -2.66699 -73 -4.33398 -101 -5.00098c-6.66699 -9.33301 -13.334 -26.666 -20.001 -51.999c-4.66699 -17.333 -10.334 -26 -17.001 -26c-29.333 0 -44 4.66699 -44 14
c0 28 3.66699 58.667 11 92c10.667 47.333 24.667 71 42 71c10 0 24.667 -2.33301 44 -7s34 -7 44 -7c63.333 0 132.666 19 207.999 57c2 -8 3 -27.667 3 -59zM428.002 1328c17.333 -85.333 26 -207.666 26 -366.999c0 -262.667 -24 -550.334 -72 -863.001l-101 -152l-1 376
c0 349.333 -29.667 616 -89 800z" />
    <glyph glyph-name="u0623" unicode="&#x623;" horiz-adv-x="476" arabic-form="isolated" 
d="M481 1499c1.33301 -7.33301 -2.16895 -23.998 -10.502 -49.998s-15.166 -39.333 -20.499 -40c-31.333 -4 -61 -9.33301 -89 -16c-65.333 -15.333 -142 -50 -230 -104c1.33301 23.333 3 46.666 5 69.999c16.667 14 51.334 33.667 104.001 59
c-57.333 29.333 -86 62.666 -86 99.999c0 30 22 65.167 66 105.5s81.333 60.5 112 60.5c41.333 0 82.666 -19.333 123.999 -58l-64 -62c-26.667 24 -50.667 36 -72 36c-15.333 0 -34 -5.66699 -56 -17c-24 -12.667 -36 -26 -36 -40c0 -16 13.333 -33.5 40 -52.5
s48.334 -28.5 65.001 -28.5c32.667 10 82 22.333 148 37zM437.998 1328c17.333 -85.333 26 -207.666 26 -366.999c0 -262.667 -24 -550.334 -72 -863.001l-101 -152l-1 376c0 349.333 -29.667 616 -89 800z" />
    <glyph glyph-name="u0624" unicode="&#x624;" horiz-adv-x="765" arabic-form="isolated" 
d="M597 967c0.666992 -7.33301 -3.16797 -24.001 -11.501 -50.001s-14.833 -39.333 -19.5 -40c-30 -4 -59.333 -9.33301 -88 -16c-65.333 -15.333 -142.333 -50 -231 -104c0 22.667 1.66699 46 5 70c20 16 54.667 35.667 104 59c-57.333 28.667 -86 62 -86 100
c0 30 22 65.167 66 105.5s81.333 60.5 112 60.5c42 0 83.333 -19.333 124 -58l-64 -62c-26.667 24 -50.667 36 -72 36c-15.333 0 -34 -5.66699 -56 -17c-24 -12.667 -36 -26 -36 -40c0 -15.333 13.333 -32.666 40 -51.999s48.334 -29 65.001 -29
c2 0.666992 18.667 5.66699 50 15c36 10.667 68.667 18 98 22zM761.998 136.999c0 -236 -101 -472.999 -303 -710.999c-56 0 -123 12.667 -201 38c-75.333 24 -137.333 52.333 -186 85c140 57.333 252.667 119.333 338 186c100 78 181.333 176 244 294
c-56 -20.667 -114 -31 -174 -31c-110.667 0 -203.667 32.333 -279 97c0 150 32.333 277 97 381c43.333 69.333 93 119.333 149 150c79.333 0 148.333 -36.333 207 -109c72 -88.667 108 -215.334 108 -380.001zM611.998 239c-18.667 40.667 -43.3311 77.333 -73.998 110
c-38 40.667 -75.333 61 -112 61c-18.667 0 -39 -16.667 -61 -50c-18.667 -28 -30.334 -53.333 -35.001 -76c7.33301 -22 33.666 -39.333 78.999 -52c33.333 -9.33301 66.333 -14 99 -14c42 0 76.667 7 104 21z" />
    <glyph glyph-name="u0625" unicode="&#x625;" horiz-adv-x="472" arabic-form="isolated" 
d="M428 1328c17.333 -85.333 26 -207.666 26 -366.999c0 -262.667 -24 -550.334 -72 -863.001l-101 -152l-1 376c0 349.333 -29.667 616 -89 800zM491 -331c1.33301 -7.33301 -2.16797 -23.998 -10.501 -49.998s-15.166 -39.333 -20.499 -40
c-30.667 -6 -60.334 -11.333 -89.001 -16c-72.667 -20 -149.334 -54.667 -230.001 -104c0 23.333 1.66699 46.666 5 69.999c16.667 13.333 51.334 33 104.001 59c-57.333 29.333 -86 62.666 -86 99.999c0 30 22 65.167 66 105.5s81.333 60.5 112 60.5
c42.667 0 84 -19.333 124 -58l-64 -62c-26 24 -50 36 -72 36c-15.333 0 -34 -5.66699 -56 -17c-24 -12.667 -36 -26 -36 -40c0 -16 13.333 -33.5 40 -52.5s48.334 -28.5 65.001 -28.5c32.667 10 82 22.333 148 37z" />
    <glyph glyph-name="u0626" unicode="&#x626;" horiz-adv-x="1460" arabic-form="isolated" 
d="M1464 765l-121.001 -267c-38 14 -73.667 21 -107 21c-112 0 -202 -81 -270 -243c3.33301 -24 41 -46.333 113 -67l196 -56c70 -27.333 105 -61 105 -101c0 -94 -28.333 -217.333 -85 -370c-244 -145.333 -494.333 -218 -751 -218c-118.667 0 -212 27 -280 81
c-74 59.333 -111 147 -111 263c0 74 18 163.333 54 268c30 88 65 165.667 105 233c34 2.66699 59 -9.33301 75 -36c-53.333 -99.333 -80 -197.666 -80 -294.999c0 -161.333 105.667 -242 317 -242c87.333 0 196 15.333 326 46c140 33.333 243.333 71 310 113
c-56 39.333 -141.333 71.666 -256 96.999c-93.333 20.667 -154.666 53 -183.999 97c0 36 13.667 102.667 41 200c95.333 340 244.333 510 447 510c49.333 0 101.333 -11.333 156 -34zM534.999 608c1.33301 -6.66699 -1.83398 -22.166 -9.50098 -46.499
s-14.167 -36.833 -19.5 -37.5l-82 -15c-68 -18.667 -139.667 -51 -215 -97c1.33301 22 3 44 5 66c17.333 14 49.333 32.333 96 55c-53.333 26 -80 57 -80 93c0 28 20.5 60.667 61.5 98s75.833 56 104.5 56c38.667 0 77 -18 115 -54l-59 -58
c-25.333 22.667 -47.666 34 -66.999 34c-14.667 0 -32 -5.33301 -52 -16c-22.667 -12 -34 -24.333 -34 -37c0 -14.667 12.333 -30.834 37 -48.501s45 -26.5 61 -26.5c37.333 10 83.333 21.333 138 34z" />
    <glyph glyph-name="u0627" unicode="&#x627;" horiz-adv-x="414" arabic-form="isolated" 
d="M388 1328c17.333 -85.333 26 -207.666 26 -366.999c0 -262.667 -24 -550.334 -72 -863.001l-101 -152l-1 376c0 349.333 -29.667 616 -89 800z" />
    <glyph glyph-name="u0628" unicode="&#x628;" horiz-adv-x="1593" arabic-form="isolated" 
d="M1592 472c0 -31.333 -19 -87.6709 -57 -169.004s-69 -131.666 -93 -150.999c-29.333 -23.333 -121 -52.666 -275 -87.999c-183.333 -42 -353 -63 -509 -63c-209.333 0 -353.333 41 -432 123c-50 52 -75 129 -75 231c0 138.667 39.667 269.334 119 392.001
c3.33301 0.666992 7 1 11 1c29.333 0 49.666 -11.333 60.999 -34c-40.667 -96 -61 -169.333 -61 -220c0 -147.333 158.667 -221 476 -221c288 0 513.667 34.333 677 103c-28 72.667 -64.667 139.334 -110 200.001l152 206c30.667 -38 58.334 -93 83.001 -165
c22 -64 33 -112.333 33 -145zM1001 -320.005l-161 -152l-158 158l164 150z" />
    <glyph glyph-name="u0629" unicode="&#x629;" horiz-adv-x="762" arabic-form="isolated" 
d="M489 1165c0.666992 -7.33301 -3.16895 -24.001 -11.502 -50.001s-14.833 -39.333 -19.5 -40c-30 -4 -59.333 -9.33301 -88 -16c-65.333 -15.333 -142.333 -50 -231 -104c0 23.333 1.66699 46.666 5 69.999c20.667 16.667 55.334 36.334 104.001 59.001
c-57.333 30 -86 63.333 -86 100c0 30 22 65.167 66 105.5s81.333 60.5 112 60.5c42.667 0 84 -19.333 124 -58l-64 -62c-26 24 -50 36 -72 36c-15.333 0 -34 -5.66699 -56 -17c-24 -12.667 -36 -26 -36 -40c0 -15.333 13.333 -32.666 40 -51.999s48.334 -29 65.001 -29
c32.667 10 82 22.333 148 37zM752.997 393.999c0 -105.333 -20.333 -209.333 -61 -312c-64 -54.667 -146 -82 -246 -82c-120.667 0 -219 39 -295 117c0 164.667 47.667 314.334 143 449.001l-58 24l82 247c120.667 -32.667 211 -70.667 271 -114
c109.333 -78.667 164 -188.334 164 -329.001zM653.997 299.999c0 55.333 -31.333 107.999 -94 157.999c-53.333 42.667 -109.333 70.334 -168 83.001c-56 -92.667 -91.667 -170 -107 -232c49.333 -50 116 -75 200 -75c76 0 132.333 22 169 66z" />
    <glyph glyph-name="u062A" unicode="&#x62a;" horiz-adv-x="1593" arabic-form="isolated" 
d="M1592 472c0 -31.333 -19 -87.6709 -57 -169.004s-69 -131.666 -93 -150.999c-29.333 -23.333 -121 -52.666 -275 -87.999c-183.333 -42 -353 -63 -509 -63c-209.333 0 -353.333 41 -432 123c-50 52 -75 129 -75 231c0 138.667 39.667 269.334 119 392.001
c3.33301 0.666992 7 1 11 1c29.333 0 49.666 -11.333 60.999 -34c-40.667 -96 -61 -169.333 -61 -220c0 -147.333 158.667 -221 476 -221c288 0 513.667 34.333 677 103c-28 72.667 -64.667 139.334 -110 200.001l152 206c30.667 -38 58.334 -93 83.001 -165
c22 -64 33 -112.333 33 -145zM1218 906.995l-148 -139l-145 146l152 136zM852 887.995l-148 -140l-145 147l151 135z" />
    <glyph glyph-name="u062B" unicode="&#x62b;" horiz-adv-x="1593" arabic-form="isolated" 
d="M1592 472c0 -31.333 -19 -87.6709 -57 -169.004s-69 -131.666 -93 -150.999c-29.333 -23.333 -121 -52.666 -275 -87.999c-183.333 -42 -353 -63 -509 -63c-209.333 0 -353.333 41 -432 123c-50 52 -75 129 -75 231c0 138.667 39.667 269.334 119 392.001
c3.33301 0.666992 7 1 11 1c29.333 0 49.666 -11.333 60.999 -34c-40.667 -96 -61 -169.333 -61 -220c0 -147.333 158.667 -221 476 -221c288 0 513.667 34.333 677 103c-28 72.667 -64.667 139.334 -110 200.001l152 206c30.667 -38 58.334 -93 83.001 -165
c22 -64 33 -112.333 33 -145zM596 885.995l127 120l126 -127l-132 -117zM877 883.995l129 121l124 -127l-130 -117zM741 1113l127 120l126 -125l-132 -118z" />
    <glyph glyph-name="u062C" unicode="&#x62c;" horiz-adv-x="1275" arabic-form="isolated" 
d="M1347 -376l-94 -126.001c-55.333 -18.667 -148.666 -36.334 -279.999 -53.001c-122.667 -15.333 -221.334 -23 -296.001 -23c-144.667 0 -264.667 32.333 -360 97c-110 74.667 -165 181 -165 319c0 139.333 63.667 275.333 191 408
c100.667 104.667 209 181.334 325 230.001c-174 38.667 -270 58 -288 58c-36 0 -75.667 -52 -119 -156c-32 0 -56.333 9.66699 -73 29c58.667 144.667 95 231.334 109 260.001c42.667 87.333 81 131 115 131c49.333 0 138 -19.333 266 -58s226.667 -58 296 -58h280
l-148 -233c-22.667 1.33301 -45 2 -67 2c-231.333 0 -407 -65 -527 -195c-84.667 -92 -127 -185.667 -127 -281c0 -242.667 217.333 -364 652 -364c62.667 0 166 4.33301 310 13zM953 -0.000976562l-161 -152l-158 158l164 150z" />
    <glyph glyph-name="u062D" unicode="&#x62d;" horiz-adv-x="1275" arabic-form="isolated" 
d="M1347 -376l-94 -126.001c-55.333 -18.667 -148.666 -36.334 -279.999 -53.001c-122.667 -15.333 -221.334 -23 -296.001 -23c-144.667 0 -264.667 32.333 -360 97c-110 74.667 -165 181 -165 319c0 139.333 63.667 275.333 191 408
c100.667 104.667 209 181.334 325 230.001c-174 38.667 -270 58 -288 58c-36 0 -75.667 -52 -119 -156c-32 0 -56.333 9.66699 -73 29c58.667 144.667 95 231.334 109 260.001c42.667 87.333 81 131 115 131c49.333 0 138 -19.333 266 -58s226.667 -58 296 -58h280
l-148 -233c-22.667 1.33301 -45 2 -67 2c-231.333 0 -407 -65 -527 -195c-84.667 -92 -127 -185.667 -127 -281c0 -242.667 217.333 -364 652 -364c62.667 0 166 4.33301 310 13z" />
    <glyph glyph-name="u062E" unicode="&#x62e;" horiz-adv-x="1275" arabic-form="isolated" 
d="M1347 -376l-94 -126.001c-55.333 -18.667 -148.666 -36.334 -279.999 -53.001c-122.667 -15.333 -221.334 -23 -296.001 -23c-144.667 0 -264.667 32.333 -360 97c-110 74.667 -165 181 -165 319c0 139.333 63.667 275.333 191 408
c100.667 104.667 209 181.334 325 230.001c-174 38.667 -270 58 -288 58c-36 0 -75.667 -52 -119 -156c-32 0 -56.333 9.66699 -73 29c58.667 144.667 95 231.334 109 260.001c42.667 87.333 81 131 115 131c49.333 0 138 -19.333 266 -58s226.667 -58 296 -58h280
l-148 -233c-22.667 1.33301 -45 2 -67 2c-231.333 0 -407 -65 -527 -195c-84.667 -92 -127 -185.667 -127 -281c0 -242.667 217.333 -364 652 -364c62.667 0 166 4.33301 310 13zM943 1092l-161 -152l-158 158l164 150z" />
    <glyph glyph-name="u062F" unicode="&#x62f;" horiz-adv-x="800" arabic-form="isolated" 
d="M797 436c0 -140 -19.666 -254.332 -58.999 -342.999c-28 -34.667 -88.667 -63 -182 -85c-76.667 -18 -145.334 -27 -206.001 -27c-82 0 -148.333 17.333 -199 52c0 90.667 14.667 195 44 313h40c10.667 -30 21 -50.333 31 -61c26 -28.667 65.667 -43 119 -43
c122 0 218.333 23.333 289 70c-41.333 168 -174.333 273.667 -399 317l49 311c121.333 -36.667 227 -98.334 317 -185.001c104 -100 156 -206.333 156 -319z" />
    <glyph glyph-name="u0630" unicode="&#x630;" horiz-adv-x="800" arabic-form="isolated" 
d="M797 436c0 -140 -19.666 -254.332 -58.999 -342.999c-28 -34.667 -88.667 -63 -182 -85c-76.667 -18 -145.334 -27 -206.001 -27c-82 0 -148.333 17.333 -199 52c0 90.667 14.667 195 44 313h40c10.667 -30 21 -50.333 31 -61c26 -28.667 65.667 -43 119 -43
c122 0 218.333 23.333 289 70c-41.333 168 -174.333 273.667 -399 317l49 311c121.333 -36.667 227 -98.334 317 -185.001c104 -100 156 -206.333 156 -319zM517.001 1218l-161 -152l-158 158l164 150z" />
    <glyph glyph-name="u0631" unicode="&#x631;" horiz-adv-x="741" arabic-form="isolated" 
d="M738 45c0 -80 -35.001 -189.331 -105.001 -327.998c-67.333 -133.333 -136.333 -235.333 -207 -306c-46 0 -107.667 16 -185 48s-132.666 64.333 -165.999 97c120.667 55.333 228.334 119.666 323.001 192.999c111.333 86 177.333 163.667 198 233
c-30 83.333 -91.667 156.333 -185 219l138 267c49.333 -42.667 93.166 -107.334 131.499 -194.001s57.5 -163 57.5 -229z" />
    <glyph glyph-name="u0632" unicode="&#x632;" horiz-adv-x="741" arabic-form="isolated" 
d="M738 45c0 -80 -35.001 -189.331 -105.001 -327.998c-67.333 -133.333 -136.333 -235.333 -207 -306c-46 0 -107.667 16 -185 48s-132.666 64.333 -165.999 97c120.667 55.333 228.334 119.666 323.001 192.999c111.333 86 177.333 163.667 198 233
c-30 83.333 -91.667 156.333 -185 219l138 267c49.333 -42.667 93.166 -107.334 131.499 -194.001s57.5 -163 57.5 -229zM688.999 786.002l-161 -152l-158 158l164 150z" />
    <glyph glyph-name="u0633" unicode="&#x633;" horiz-adv-x="2180" arabic-form="isolated" 
d="M2178 459c0 -25.333 -11.6689 -73.6641 -35.002 -144.997c-21.333 -64.667 -39.666 -112.667 -55 -144c-21.333 -42.667 -54.666 -80.667 -99.999 -114c-48.667 -35.333 -95.334 -53 -140.001 -53c-108 0 -178 66 -210 198c-52.667 -132.667 -127 -199 -223 -199
c-42 0 -87.667 13 -137 39c1.33301 -14 2 -29 2 -45c0 -40 -4.33301 -91.333 -13 -154c-10 -74 -22 -122.667 -36 -146c-58 -68 -137.333 -126.333 -238 -175c-125.333 -60.667 -259 -91 -401 -91c-172.667 0 -296 46 -370 138c-47.333 59.333 -71 132 -71 218
c0 124 71 288.667 213 494c4 1.33301 8 2 12 2c32 0 52 -13.333 60 -40c-74.667 -120 -112 -222 -112 -306c0 -82 33.667 -143.667 101 -185c55.333 -34 126.666 -51 213.999 -51c117.333 0 230.333 21.333 339 64c96.667 38 160.667 79.333 192 124
c-29.333 153.333 -90.666 275.666 -183.999 366.999l106 263c72 -102 117.667 -162.333 137 -181c44.667 -43.333 98.334 -65 161.001 -65c81.333 0 140 35 176 105c23.333 45.333 35 97.666 35 156.999h90c0 -173.333 52.667 -260 158 -260
c78.667 0 142.334 20.667 191.001 62c0 18 -42.667 88.667 -128 212l154 202c24 -26 48 -68.333 72 -127c26.667 -64.667 40 -119.334 40 -164.001z" />
    <glyph glyph-name="u0634" unicode="&#x634;" horiz-adv-x="2180" arabic-form="isolated" 
d="M2178 459c0 -25.333 -11.6689 -73.6641 -35.002 -144.997c-21.333 -64.667 -39.666 -112.667 -55 -144c-21.333 -42.667 -54.666 -80.667 -99.999 -114c-48.667 -35.333 -95.334 -53 -140.001 -53c-108 0 -178 66 -210 198c-52.667 -132.667 -127 -199 -223 -199
c-42 0 -87.667 13 -137 39c1.33301 -14 2 -29 2 -45c0 -40 -4.33301 -91.333 -13 -154c-10 -74 -22 -122.667 -36 -146c-58 -68 -137.333 -126.333 -238 -175c-125.333 -60.667 -259 -91 -401 -91c-172.667 0 -296 46 -370 138c-47.333 59.333 -71 132 -71 218
c0 124 71 288.667 213 494c4 1.33301 8 2 12 2c32 0 52 -13.333 60 -40c-74.667 -120 -112 -222 -112 -306c0 -82 33.667 -143.667 101 -185c55.333 -34 126.666 -51 213.999 -51c117.333 0 230.333 21.333 339 64c96.667 38 160.667 79.333 192 124
c-29.333 153.333 -90.666 275.666 -183.999 366.999l106 263c72 -102 117.667 -162.333 137 -181c44.667 -43.333 98.334 -65 161.001 -65c81.333 0 140 35 176 105c23.333 45.333 35 97.666 35 156.999h90c0 -173.333 52.667 -260 158 -260
c78.667 0 142.334 20.667 191.001 62c0 18 -42.667 88.667 -128 212l154 202c24 -26 48 -68.333 72 -127c26.667 -64.667 40 -119.334 40 -164.001zM1553 1077l127 120l126 -127l-132 -117zM1834 1075l129 121l124 -127l-130 -117zM1698 1304l127 120l126 -125l-132 -118z
" />
    <glyph glyph-name="u0635" unicode="&#x635;" horiz-adv-x="2301" arabic-form="isolated" 
d="M2298 452c0 -20 -30 -64.3311 -90 -132.998c-185.333 -212 -434.666 -318 -747.999 -318c-87.333 0 -148 13.333 -182 40c1.33301 -12 2 -25.333 2 -40c0 -52.667 -6.33301 -115 -19 -187c-11.333 -64.667 -21.333 -104 -30 -118c-58 -68 -137.333 -126.333 -238 -175
c-125.333 -60.667 -259 -91 -401 -91c-172.667 0 -296 46 -370 138c-47.333 59.333 -71 132 -71 218c0 124 71 288.667 213 494c4 1.33301 8 2 12 2c32 0 52 -13.333 60 -40c-74.667 -120 -112 -222 -112 -306c0 -82 33.667 -143.667 101 -185
c55.333 -34 126.666 -51 213.999 -51c117.333 0 230.333 21.333 339 64c96.667 38 160.667 79.333 192 124c-29.333 153.333 -90.666 275.666 -183.999 366.999l106 263c72.667 -101.333 122 -163.333 148 -186c46.667 -41.333 104.667 -62 174 -62
c106 128 190.667 219.667 254 275c123.333 107.333 238.666 161 345.999 161c80 0 149 -30 207 -90c51.333 -52.667 77 -107.334 77 -164.001zM2067 375.002c0 43.333 -16.5 78.668 -49.5 106.001s-71.5 41 -115.5 41c-62 0 -131.333 -32.333 -208 -97
c-52.667 -44.667 -102 -98.334 -148 -161.001c265.333 0 439 37 521 111z" />
    <glyph glyph-name="u0636" unicode="&#x636;" horiz-adv-x="2301" arabic-form="isolated" 
d="M2298 452c0 -20 -30 -64.3311 -90 -132.998c-185.333 -212 -434.666 -318 -747.999 -318c-87.333 0 -148 13.333 -182 40c1.33301 -12 2 -25.333 2 -40c0 -52.667 -6.33301 -115 -19 -187c-11.333 -64.667 -21.333 -104 -30 -118c-58 -68 -137.333 -126.333 -238 -175
c-125.333 -60.667 -259 -91 -401 -91c-172.667 0 -296 46 -370 138c-47.333 59.333 -71 132 -71 218c0 124 71 288.667 213 494c4 1.33301 8 2 12 2c32 0 52 -13.333 60 -40c-74.667 -120 -112 -222 -112 -306c0 -82 33.667 -143.667 101 -185
c55.333 -34 126.666 -51 213.999 -51c117.333 0 230.333 21.333 339 64c96.667 38 160.667 79.333 192 124c-29.333 153.333 -90.666 275.666 -183.999 366.999l106 263c72.667 -101.333 122 -163.333 148 -186c46.667 -41.333 104.667 -62 174 -62
c106 128 190.667 219.667 254 275c123.333 107.333 238.666 161 345.999 161c80 0 149 -30 207 -90c51.333 -52.667 77 -107.334 77 -164.001zM2067 375.002c0 43.333 -16.5 78.668 -49.5 106.001s-71.5 41 -115.5 41c-62 0 -131.333 -32.333 -208 -97
c-52.667 -44.667 -102 -98.334 -148 -161.001c265.333 0 439 37 521 111zM2029 1032l-161 -152l-158 158l164 150z" />
    <glyph glyph-name="u0637" unicode="&#x637;" horiz-adv-x="1354" arabic-form="isolated" 
d="M1351 462c0 -27.333 -28.001 -73.998 -84.001 -139.998c-74 -86.667 -166.333 -157.334 -277 -212.001c-147.333 -72.667 -316.333 -109 -507 -109c-117.333 0 -193.333 22.667 -228 68c-23.333 30.667 -58.333 132.667 -105 306h63c24 -45.333 62 -75.333 114 -90
c32.667 -9.33301 83 -14 151 -14v193c0 318.667 -36.667 562.667 -110 732l180 160l147 -290h-74v-636c145.333 186.667 294.333 280 447 280c76.667 0 144.334 -29 203.001 -87c53.333 -52.667 80 -106.334 80 -161.001zM1126 377.002c0 44.667 -16.167 80.333 -48.5 107
s-71.166 40 -116.499 40c-110.667 0 -229.334 -86 -356.001 -258c265.333 0 439 37 521 111z" />
    <glyph glyph-name="u0638" unicode="&#x638;" horiz-adv-x="1354" arabic-form="isolated" 
d="M1351 462c0 -27.333 -28.001 -73.998 -84.001 -139.998c-74 -86.667 -166.333 -157.334 -277 -212.001c-147.333 -72.667 -316.333 -109 -507 -109c-117.333 0 -193.333 22.667 -228 68c-23.333 30.667 -58.333 132.667 -105 306h63c24 -45.333 62 -75.333 114 -90
c32.667 -9.33301 83 -14 151 -14v193c0 318.667 -36.667 562.667 -110 732l180 160l147 -290h-74v-636c145.333 186.667 294.333 280 447 280c76.667 0 144.334 -29 203.001 -87c53.333 -52.667 80 -106.334 80 -161.001zM1126 377.002c0 44.667 -16.167 80.333 -48.5 107
s-71.166 40 -116.499 40c-110.667 0 -229.334 -86 -356.001 -258c265.333 0 439 37 521 111zM1187 1044l-161 -152l-158 158l164 150z" />
    <glyph glyph-name="u0639" unicode="&#x639;" horiz-adv-x="1089" arabic-form="isolated" 
d="M1164 -398l-80.0039 -126.002c-145.333 -49.333 -294.666 -74 -447.999 -74c-136 0 -245.667 24 -329 72c-104 60.667 -156 154.334 -156 281.001c0 111.333 48.667 222 146 332c65.333 74 137 134.333 215 181c-60 44.667 -96 73.334 -108 86.001
c-52 54.667 -78 114.667 -78 180c0 60.667 43 136 129 226c90 94 171.667 141 245 141c99.333 0 187 -58.667 263 -176c9.33301 -14.667 14 -23.667 14 -27s-2 -5 -6 -5c-5.33301 0 -17.666 3.66699 -36.999 11c-49.333 18.667 -102.666 28 -159.999 28
c-90.667 0 -168.667 -22 -234 -66c12 -127.333 79.333 -208.666 202 -243.999l348 86l-86 -226c-125.333 -8.66699 -239.666 -33.334 -342.999 -74.001c-182.667 -72 -274 -180 -274 -324c0 -114.667 66 -197 198 -247c90 -34 204.333 -51 343 -51
c75.333 0 154 5.33301 236 16z" />
    <glyph glyph-name="u063A" unicode="&#x63a;" horiz-adv-x="1089" arabic-form="isolated" 
d="M1164 -398l-80.0039 -126.002c-145.333 -49.333 -294.666 -74 -447.999 -74c-136 0 -245.667 24 -329 72c-104 60.667 -156 154.334 -156 281.001c0 111.333 48.667 222 146 332c65.333 74 137 134.333 215 181c-60 44.667 -96 73.334 -108 86.001
c-52 54.667 -78 114.667 -78 180c0 60.667 43 136 129 226c90 94 171.667 141 245 141c99.333 0 187 -58.667 263 -176c9.33301 -14.667 14 -23.667 14 -27s-2 -5 -6 -5c-5.33301 0 -17.666 3.66699 -36.999 11c-49.333 18.667 -102.666 28 -159.999 28
c-90.667 0 -168.667 -22 -234 -66c12 -127.333 79.333 -208.666 202 -243.999l348 86l-86 -226c-125.333 -8.66699 -239.666 -33.334 -342.999 -74.001c-182.667 -72 -274 -180 -274 -324c0 -114.667 66 -197 198 -247c90 -34 204.333 -51 343 -51
c75.333 0 154 5.33301 236 16zM840.996 1170l-161 -152l-158 158l164 150z" />
    <glyph glyph-name="u0641" unicode="&#x641;" horiz-adv-x="1490" arabic-form="isolated" 
d="M1488 516c0 -95.333 -11.333 -221.668 -34 -379.001c-128 -90.667 -379.667 -136 -755 -136c-198.667 0 -332 14 -400 42c-98.667 40.667 -148 126.667 -148 258c0 118 41 241.333 123 370c31.333 2.66699 51.333 -8.33301 60 -33c-38.667 -63.333 -58 -124.333 -58 -183
c0 -88 54.667 -143 164 -165c52.667 -10.667 181.334 -16 386.001 -16c272 0 451.333 22.333 538 67v102c-50 -20.667 -106.333 -31 -169 -31c-103.333 0 -183.333 23.333 -240 70c0 146.667 27.333 267.667 82 363c37.333 64.667 81.666 111.334 132.999 140.001
c115.333 0 200.333 -52 255 -156c42 -80 63 -184.333 63 -313zM1352 627.998c-47.333 101.333 -111.333 152 -192 152c-20.667 0 -39.667 -14 -57 -42c-15.333 -25.333 -23 -49.333 -23 -72c0 -38.667 54 -58 162 -58c53.333 0 90 6.66699 110 20zM1345 1234l-145 -137
l-142 143l147 135z" />
    <glyph glyph-name="u0642" unicode="&#x642;" horiz-adv-x="1310" arabic-form="isolated" 
d="M1311 116c0 -53.333 -4.99805 -124.332 -14.998 -212.999c-11.333 -102.667 -24.333 -171 -39 -205c-52 -52 -134.667 -104.333 -248 -157c-153.333 -71.333 -303.333 -107 -450 -107c-126 0 -224.333 30.333 -295 91c-75.333 64.667 -113 159 -113 283
c0 65.333 14.667 146.666 44 243.999c31.333 104 68.666 186 111.999 246c33.333 -2 54 -12.667 62 -32c-48.667 -102 -73 -197.667 -73 -287c0 -182 106.333 -273 319 -273c88 0 188.667 18.667 302 56c117.333 38 208.666 83.333 273.999 136v126
c-53.333 -14.667 -107 -22 -161 -22c-114.667 0 -208.667 32.667 -282 98c0 105.333 19.667 204.666 59 297.999c45.333 106.667 108.333 184 189 232c210 -27.333 315 -198.666 315 -513.999zM1157 242.001c-34.667 100 -100.333 156.333 -197 169
c-38 -27.333 -64 -68.333 -78 -123c32.667 -48 92.667 -72 180 -72c41.333 0 73 8.66699 95 26zM1268 919.001l-148 -139l-145 146l152 136zM902.003 900.001l-148 -140l-145 147l151 135z" />
    <glyph glyph-name="u0643" unicode="&#x643;" horiz-adv-x="1631" arabic-form="isolated" 
d="M1678 1351l-114 -266.999c-216 -67.333 -412.333 -145 -589 -233c178.667 -58 305 -154.333 379 -289c0.666992 -21.333 1 -42 1 -62c0 -112 -11 -208 -33 -288c-60 -87.333 -152.333 -147 -277 -179c-83.333 -21.333 -196.333 -32 -339 -32
c-199.333 0 -333.666 14 -402.999 42c-101.333 40.667 -152 126.667 -152 258c0 118 41 241.333 123 370c31.333 2.66699 51.333 -8.33301 60 -33c-38.667 -63.333 -58 -124.333 -58 -183c0 -88 47.667 -143 143 -165c46 -10.667 158.333 -16 337 -16
c255.333 0 422.666 30.667 501.999 92c-53.333 121.333 -185 224.333 -395 309c0 95.333 11.333 213.666 34 354.999c105.333 58.667 234.333 120.667 387 186c176 75.333 307.333 120.333 394 135z" />
    <glyph glyph-name="u0644" unicode="&#x644;" horiz-adv-x="1152" arabic-form="isolated" 
d="M1143 1038l-80.999 0.000976562c8.66699 -200.667 13 -437 13 -709c0 -80 -0.333008 -163 -1 -249c-4 -35.333 -14.333 -81 -31 -137c-18.667 -62.667 -36.334 -104.667 -53.001 -126c-52 -49.333 -117.333 -94.333 -196 -135c-120 -62 -239.333 -93 -358 -93
c-190 0 -285 92.667 -285 278c0 121.333 39.667 267.666 119 438.999c28.667 -1.33301 52 -10 70 -26c-29.333 -63.333 -44 -140 -44 -230c0 -130.667 68.667 -196 206 -196c128.667 0 268 44 418 132v390c0 138 -9.66699 281.333 -29 430c-21.333 164 -49 285.667 -83 365
l182 164z" />
    <glyph glyph-name="u0645" unicode="&#x645;" horiz-adv-x="1107" arabic-form="isolated" 
d="M1104 378c-5.33301 -51.333 -32.668 -120.665 -82.001 -207.998c-45.333 -80 -86.666 -138.667 -123.999 -176c-208 72 -363.667 108 -467 108c-50.667 0 -96.334 -7 -137.001 -21c16.667 -123.333 30.667 -280.333 42 -471l-147 -174
c0 213.333 -13.333 412.666 -40 597.999c72 126 136.333 213.333 193 262c17.333 7.33301 65 18.666 143 33.999c-14.667 43.333 -22 79.333 -22 108c0 6 0.333008 12 1 18c43.333 64 106 148 188 252c246.667 -8.66699 397.334 -118.667 452.001 -330zM953.998 230.001
c-17.333 71.333 -52.333 131 -105 179c-56 50.667 -119.333 76 -190 76c-24.667 0 -49 -3.66699 -73 -11l44 -154c106 -14 214 -44 324 -90z" />
    <glyph glyph-name="u0646" unicode="&#x646;" horiz-adv-x="1298" arabic-form="isolated" 
d="M1296 33c0 -82.667 -21.668 -194.999 -65.001 -336.999c-58 -68 -137.333 -126.333 -238 -175c-125.333 -60.667 -259 -91 -401 -91c-172.667 0 -296 46 -370 138c-47.333 59.333 -71 132 -71 218c0 124 71 288.667 213 494c4 1.33301 8 2 12 2c32 0 52 -13.333 60 -40
c-74.667 -120 -112 -222 -112 -306c0 -82 33.667 -143.667 101 -185c55.333 -34 126.666 -51 213.999 -51c117.333 0 230.333 21.333 339 64c96.667 38 160.667 79.333 192 124c-29.333 153.333 -90.666 275.666 -183.999 366.999l109 273
c48.667 -56.667 93.334 -132 134.001 -226c44.667 -103.333 67 -193 67 -269zM922.999 654.001l-161 -152l-158 158l164 150z" />
    <glyph glyph-name="u0647" unicode="&#x647;" horiz-adv-x="756" arabic-form="isolated" 
d="M753 394c0 -105.333 -20.333 -209.333 -61 -312c-64 -54.667 -146 -82 -246 -82c-120.667 0 -219 39 -295 117c0 164.667 47.667 314.334 143 449.001l-58 24l82 247c120.667 -32.667 211 -70.667 271 -114c109.333 -78.667 164 -188.334 164 -329.001zM654 300
c0 55.333 -31.333 107.999 -94 157.999c-53.333 42.667 -109.333 70.334 -168 83.001c-56 -92.667 -91.667 -170 -107 -232c49.333 -50 116 -75 200 -75c76 0 132.333 22 169 66z" />
    <glyph glyph-name="u0648" unicode="&#x648;" horiz-adv-x="765" arabic-form="isolated" 
d="M762 137c0 -236 -101 -472.999 -303 -710.999c-56 0 -123 12.667 -201 38c-75.333 24 -137.333 52.333 -186 85c140 57.333 252.667 119.333 338 186c100 78 181.333 176 244 294c-56 -20.667 -114 -31 -174 -31c-110.667 0 -203.667 32.333 -279 97
c0 150 32.333 277 97 381c43.333 69.333 93 119.333 149 150c79.333 0 148.333 -36.333 207 -109c72 -88.667 108 -215.334 108 -380.001zM612 239.001c-18.667 40.667 -43.3311 77.333 -73.998 110c-38 40.667 -75.333 61 -112 61c-18.667 0 -39 -16.667 -61 -50
c-18.667 -28 -30.334 -53.333 -35.001 -76c7.33301 -22 33.666 -39.333 78.999 -52c33.333 -9.33301 66.333 -14 99 -14c42 0 76.667 7 104 21z" />
    <glyph glyph-name="u0649" unicode="&#x649;" horiz-adv-x="1460" arabic-form="isolated" 
d="M1464 765l-121.001 -267c-38 14 -73.667 21 -107 21c-112 0 -202 -81 -270 -243c3.33301 -24 41 -46.333 113 -67l196 -56c70 -27.333 105 -61 105 -101c0 -94 -28.333 -217.333 -85 -370c-244 -145.333 -494.333 -218 -751 -218c-118.667 0 -212 27 -280 81
c-74 59.333 -111 147 -111 263c0 74 18 163.333 54 268c30 88 65 165.667 105 233c34 2.66699 59 -9.33301 75 -36c-53.333 -99.333 -80 -197.666 -80 -294.999c0 -161.333 105.667 -242 317 -242c87.333 0 196 15.333 326 46c140 33.333 243.333 71 310 113
c-56 39.333 -141.333 71.666 -256 96.999c-93.333 20.667 -154.666 53 -183.999 97c0 36 13.667 102.667 41 200c95.333 340 244.333 510 447 510c49.333 0 101.333 -11.333 156 -34z" />
    <glyph glyph-name="u064A" unicode="&#x64a;" horiz-adv-x="1460" arabic-form="isolated" 
d="M1464 765l-121.001 -267c-38 14 -73.667 21 -107 21c-112 0 -202 -81 -270 -243c3.33301 -24 41 -46.333 113 -67l196 -56c70 -27.333 105 -61 105 -101c0 -94 -28.333 -217.333 -85 -370c-244 -145.333 -494.333 -218 -751 -218c-118.667 0 -212 27 -280 81
c-74 59.333 -111 147 -111 263c0 74 18 163.333 54 268c30 88 65 165.667 105 233c34 2.66699 59 -9.33301 75 -36c-53.333 -99.333 -80 -197.666 -80 -294.999c0 -161.333 105.667 -242 317 -242c87.333 0 196 15.333 326 46c140 33.333 243.333 71 310 113
c-56 39.333 -141.333 71.666 -256 96.999c-93.333 20.667 -154.666 53 -183.999 97c0 36 13.667 102.667 41 200c95.333 340 244.333 510 447 510c49.333 0 101.333 -11.333 156 -34z" />
    <glyph glyph-name="u067E" unicode="&#x67e;" horiz-adv-x="1593" arabic-form="isolated" 
d="M1592 472c0 -31.333 -19 -87.6709 -57 -169.004s-69 -131.666 -93 -150.999c-29.333 -23.333 -121 -52.666 -275 -87.999c-183.333 -42 -353 -63 -509 -63c-209.333 0 -353.333 41 -432 123c-50 52 -75 129 -75 231c0 138.667 39.667 269.334 119 392.001
c3.33301 0.666992 7 1 11 1c29.333 0 49.666 -11.333 60.999 -34c-40.667 -96 -61 -169.333 -61 -220c0 -147.333 158.667 -221 476 -221c288 0 513.667 34.333 677 103c-28 72.667 -64.667 139.334 -110 200.001l152 206c30.667 -38 58.334 -93 83.001 -165
c22 -64 33 -112.333 33 -145zM1082 -241.005l-127 -120l-126 127l132 117zM801 -239.005l-129 -121l-124 127l130 117zM937 -468.005l-127 -120l-126 125l132 118z" />
    <glyph glyph-name="u0686" unicode="&#x686;" horiz-adv-x="1275" arabic-form="isolated" 
d="M1347 -376l-94 -126.001c-55.333 -18.667 -148.666 -36.334 -279.999 -53.001c-122.667 -15.333 -221.334 -23 -296.001 -23c-144.667 0 -264.667 32.333 -360 97c-110 74.667 -165 181 -165 319c0 139.333 63.667 275.333 191 408
c100.667 104.667 209 181.334 325 230.001c-174 38.667 -270 58 -288 58c-36 0 -75.667 -52 -119 -156c-32 0 -56.333 9.66699 -73 29c58.667 144.667 95 231.334 109 260.001c42.667 87.333 81 131 115 131c49.333 0 138 -19.333 266 -58s226.667 -58 296 -58h280
l-148 -233c-22.667 1.33301 -45 2 -67 2c-231.333 0 -407 -65 -527 -195c-84.667 -92 -127 -185.667 -127 -281c0 -242.667 217.333 -364 652 -364c62.667 0 166 4.33301 310 13zM1082 82.999l-127 -120l-126 127l132 117zM801 84.999l-129 -121l-124 127l130 117z
M937 -144.001l-127 -120l-126 125l132 118z" />
    <glyph glyph-name="u0698" unicode="&#x698;" horiz-adv-x="780" arabic-form="isolated" 
d="M738 45c0 -80 -35.001 -189.331 -105.001 -327.998c-67.333 -133.333 -136.333 -235.333 -207 -306c-46 0 -107.667 16 -185 48s-132.666 64.333 -165.999 97c120.667 55.333 228.334 119.666 323.001 192.999c111.333 86 177.333 163.667 198 233
c-30 83.333 -91.667 156.333 -185 219l138 267c49.333 -42.667 93.166 -107.334 131.499 -194.001s57.5 -163 57.5 -229zM242.999 711.002l127 120l126 -127l-132 -117zM523.999 709.002l129 121l124 -127l-130 -117zM387.999 938.002l127 120l126 -125l-132 -118z" />
    <glyph glyph-name="u06AF" unicode="&#x6af;" horiz-adv-x="1624" arabic-form="isolated" 
d="M1624 1366l-50 -100c-152 -21.333 -340.667 -66 -566 -134l28 108c70.667 20 138.667 38 204 54c155.333 38 283.333 62 384 72zM1676 1180l-104 -256.001c-230 -14 -442.667 -49.333 -638 -106c102 -31.333 181 -63 237 -95c62.667 -36 118.667 -84 168 -144
c6 -39.333 6.66699 -101.666 2 -186.999c-4.66699 -78 -11 -138 -19 -180c-60 -87.333 -152.333 -147 -277 -179c-83.333 -21.333 -196.333 -32 -339 -32c-199.333 0 -333.666 14 -402.999 42c-101.333 40.667 -152 126.667 -152 258c0 118 41 241.333 123 370
c31.333 2.66699 51.333 -8.33301 60 -33c-38.667 -63.333 -58 -124.333 -58 -183c0 -88 47.667 -143 143 -165c46 -10.667 158.333 -16 337 -16c255.333 0 422.666 30.667 501.999 92c-86 126 -222.333 211.333 -409 256c0 88 13.667 210 41 366
c295.333 104.667 557.333 168.667 786 192z" />
    <glyph glyph-name="uFB57" unicode="&#x67e;" horiz-adv-x="1698" arabic-form="final" 
d="M1729 1l-78.999 0.00195312c-68 0 -124.333 18.667 -169 56c-48 39.333 -73 92.333 -75 159c-194.667 -143.333 -448.667 -215 -762 -215c-150 0 -263.333 21 -340 63c-102 56 -153 152.333 -153 289c0 151.333 40 283 120 395c33.333 4 57 -7.33301 71 -34
c-40.667 -94.667 -61 -170.334 -61 -227.001c0 -74.667 45.667 -130.667 137 -168c73.333 -30 167.333 -45 282 -45c115.333 0 229.666 10 342.999 30c148.667 26 255 64 319 114c40 30.667 70.667 77 92 139c8 5.33301 21.333 5.66602 40 0.999023
c18 -4.66699 31 -11.667 39 -21c-15.333 -48 -23 -89.667 -23 -125c0 -91.333 52.667 -137 158 -137h61v-274zM1082 -240.998l-127 -120l-126 127l132 117zM801.001 -238.998l-129 -121l-124 127l130 117zM937.001 -467.998l-127 -120l-126 125l132 118z" />
    <glyph glyph-name="uFB58" unicode="&#x67e;" horiz-adv-x="570" arabic-form="initial" 
d="M446 430c-23.333 -141.333 -55.334 -237.333 -96.001 -288c-75.333 -94 -180.666 -141 -315.999 -141h-64v274h104c144.667 0 217 21.667 217 65c0 30 -37.667 96 -113 198l154 210c76 -101.333 114 -207.333 114 -318zM562.999 -226l-127 -120l-126 127l132 117z
M281.999 -224l-129 -121l-124 127l130 117zM417.999 -453l-127 -120l-126 125l132 118z" />
    <glyph glyph-name="uFB59" unicode="&#x67e;" horiz-adv-x="549" arabic-form="medial" 
d="M580 1l-70.999 -0.000976562c-54 0 -104.333 23.667 -151 71c-43.333 44 -70.333 93.667 -81 149c-8 -51.333 -36.333 -100.333 -85 -147c-50.667 -48.667 -101.334 -73 -152.001 -73h-70v274h60c67.333 0 120.333 30 159 90c31.333 48.667 47 103.667 47 165h85
c0 -71.333 15 -129.666 45 -174.999c34.667 -53.333 86 -80 154 -80h60v-274zM543.001 -226.001l-127 -120l-126 127l132 117zM262.001 -224.001l-129 -121l-124 127l130 117zM398.001 -453.001l-127 -120l-126 125l132 118z" />
    <glyph glyph-name="uFB7B" unicode="&#x686;" horiz-adv-x="1324" arabic-form="final" 
d="M1353 1l-93.001 -0.000976562c-263.333 0 -415.333 147.667 -456 443c-133.333 -34 -241.333 -110.667 -324 -230c-63.333 -91.333 -95 -171 -95 -239c0 -242.667 209.333 -364 628 -364c58.667 0 160 4.33301 304 13l-94 -126
c-55.333 -19.333 -143.666 -37 -264.999 -53c-114.667 -15.333 -208.334 -23 -281.001 -23c-144.667 0 -264.667 32.333 -360 97c-110 74.667 -165 181 -165 319c0 132.667 63.667 266.667 191 402c103.333 110 211.666 188.667 324.999 236c-174 38.667 -270 58 -288 58
c-36 0 -75.667 -52 -119 -156c-32 0 -56.333 9.66699 -73 29c58.667 144.667 95 231.334 109 260.001c42.667 87.333 81 131 115 131c48.667 0 136.834 -19.5 264.501 -58.5s226.834 -58.167 297.501 -57.5l313 2l-132 -234h-247c20 -58.667 43.667 -99 71 -121
c45.333 -36 119 -54 221 -54h153v-274zM958.999 21.999l-121 -114l-120 121l126 111zM691.999 23.999l-123 -115l-118 121l124 111zM820.999 -193.001l-121 -114l-119 119l125 112z" />
    <glyph glyph-name="uFB7C" unicode="&#x686;" horiz-adv-x="1044" arabic-form="initial" 
d="M1040 371l-133.996 -218c-94.667 18.667 -157.334 28 -188.001 28c-52.667 0 -158.667 -30 -318 -90s-279.333 -90 -360 -90h-70v274h153c178 0 327.667 16 449 48c-66 36 -146.667 86.333 -242 151c-60.667 41.333 -101 62 -121 62s-56.333 -45.667 -109 -137
c-9.33301 -1.33301 -21.833 2 -37.5 10s-25.834 16.333 -30.501 25c103.333 224 186.666 336 249.999 336c41.333 0 108.666 -36 201.999 -108c142.667 -109.333 231 -174.666 265 -195.999c111.333 -68.667 208.333 -100.334 291 -95.001zM772.004 -232l-127 -120l-126 127
l132 117zM491.004 -230l-129 -121l-124 127l130 117zM627.004 -459l-127 -120l-126 125l132 118z" />
    <glyph glyph-name="uFB7D" unicode="&#x686;" horiz-adv-x="1310" arabic-form="medial" 
d="M1340 1l-78.999 0.000976562c-112.667 0 -202.334 33.667 -269.001 101c-53.333 54 -99.666 140.667 -138.999 260c-213.333 -150.667 -340.333 -237.334 -381 -260.001c-120.667 -67.333 -242.667 -101 -366 -101h-136v274h180c108.667 0 197.667 11 267 33
c47.333 14.667 136.333 54.667 267 120c-254 100 -397.333 150 -430 150c-29.333 0 -53 -9.33301 -71 -28c-16 -16 -38 -50.667 -66 -104c-10.667 -4.66699 -20.334 -7 -29.001 -7c-18 0 -32.333 9 -43 27c45.333 118 80 199.333 104 244c44.667 84 87.667 126 129 126
c26.667 0 118.167 -35 274.5 -105s270.166 -105 341.499 -105c78.667 0 201.334 16 368.001 48l-106 -242c-87.333 -9.33301 -159.333 -20 -216 -32c40 -83.333 117.333 -125 232 -125h168v-274zM862.001 -231.999l-127 -120l-126 127l132 117zM581.001 -229.999l-129 -121
l-124 127l130 117zM717.001 -458.999l-127 -120l-126 125l132 118z" />
    <glyph glyph-name="uFB8B" unicode="&#x698;" horiz-adv-x="916" arabic-form="final" 
d="M945 1l-59 -0.000976562c-48 0 -94.333 16.667 -139 50c-44.667 -246 -158 -452 -340 -618c-26.667 0 -75 13.333 -145 40c-80.667 30.667 -143.667 64.334 -189 101.001c312.667 149.333 491.667 292.333 537 429c-27.333 78 -95 155.333 -203 232l136 269
c84.667 -95.333 141.667 -154 171 -176c47.333 -35.333 103.333 -53 168 -53h63v-274zM243 710.999l127 120l126 -127l-132 -117zM524 708.999l129 121l124 -127l-130 -117zM388 937.999l127 120l126 -125l-132 -118z" />
    <glyph glyph-name="uFEDA" unicode="&#x6a9;" horiz-adv-x="1869" arabic-form="final" 
d="M1899 1h-61.0029c-74 0 -144.333 26 -211 78c-36.667 28.667 -84 80.334 -142 155.001s-104.333 125.667 -139 153c4 -24 6 -49 6 -75c0 -34 -3.66699 -70 -11 -108c-59.333 -85.333 -155.666 -143.333 -288.999 -174c-84 -19.333 -199.333 -29 -346 -29
c-199.333 0 -333.666 14 -402.999 42c-101.333 40.667 -152 126.667 -152 258c0 118 41 241.333 123 370c31.333 2.66699 51.333 -8.33301 60 -33c-38.667 -63.333 -58 -124.333 -58 -183c0 -84 47.667 -137.667 143 -161c54 -13.333 166.333 -20 337 -20
c157.333 0 272.333 6 345 18c65.333 10.667 121 32.334 167 65.001c-77.333 129.333 -212 237.666 -404 324.999c4 135.333 14.667 249 32 341c288.667 162.667 565.667 272.667 831 330l-120 -258c-93.333 -22.667 -214 -64.334 -362 -125.001
c-118 -48 -203.333 -86.333 -256 -115c104.667 -39.333 224.667 -111.333 360 -216c50.667 -39.333 113 -97 187 -173c66.667 -68.667 115.334 -114 146.001 -136c50.667 -36.667 103.667 -55 159 -55h58v-274z" />
    <glyph glyph-name="uFEDB" unicode="&#x6a9;" horiz-adv-x="777" arabic-form="initial" 
d="M828 1351l-113.999 -266.999c-216 -67.333 -412.333 -145 -589 -233c178.667 -58 305 -154.333 379 -289c0.666992 -19.333 1 -38.333 1 -57c0 -118.667 -14.333 -227 -43 -325c-106 -119.333 -249.667 -179 -431 -179h-81v274h86c100.667 0 165 2 193 6
c65.333 9.33301 123 33.666 173 72.999c-58.667 133.333 -188.334 240.333 -389.001 321c6 142 17.333 260.333 34 355c104.667 58.667 233.667 120.667 387 186c176.667 75.333 308 120.333 394 135z" />
    <glyph glyph-name="uFEDC" unicode="&#x6a9;" horiz-adv-x="1014" arabic-form="medial" 
d="M1045 1l-61.002 0.000976562c-73.333 0 -143.333 26 -210 78c-36.667 28.667 -84.167 80.334 -142.5 155.001s-104.833 125.667 -139.5 153c1.33301 -7.33301 2 -16.333 2 -27c0 -34.667 -7.33301 -85.334 -22 -152.001c-44 -68 -107.667 -120.333 -191 -157
c-75.333 -33.333 -157 -50 -245 -50h-66v274h96c168 0 280.667 27.333 338 82c-79.333 133.333 -210.666 241.666 -393.999 324.999c4 133.333 14.667 247 32 341c290.667 163.333 567.667 273.333 831 330l-120 -258c-96 -23.333 -216.667 -65 -362 -125
c-114.667 -47.333 -200 -85.666 -256 -114.999c104 -39.333 224 -111.333 360 -216c52.667 -40.667 115.334 -98.334 188.001 -173.001c68.667 -70 117 -115.333 145 -136c50.667 -36.667 103.667 -55 159 -55h58v-274z" />
    <glyph glyph-name="uFB93" unicode="&#x6af;" horiz-adv-x="1854" arabic-form="final" 
d="M1681 1360l-50.001 -100c-152 -21.333 -351.667 -67 -599 -137l28 108c68.667 18.667 142 37 220 55c168.667 39.333 302.334 64 401.001 74zM1885 1l-61.002 -0.00195312c-71.333 0 -156.666 50 -255.999 150l-227 231c5.33301 -31.333 8 -62 8 -92
s-2.66699 -58.667 -8 -86c-59.333 -85.333 -155.666 -143.333 -288.999 -174c-84 -19.333 -199.333 -29 -346 -29c-199.333 0 -333.666 14 -402.999 42c-101.333 40.667 -152 126.667 -152 258c0 118 41 241.333 123 370c31.333 2.66699 51.333 -8.33301 60 -33
c-38.667 -63.333 -58 -124.333 -58 -183c0 -84 47.667 -137.667 143 -161c54 -13.333 166.333 -20 337 -20c154 0 267 6.66699 339 20c61.333 11.333 116 33 164 65c-35.333 63.333 -93.333 119.333 -174 168c-70 42.667 -145.667 73.334 -227 92.001
c10.667 136.667 24.667 257.334 42 362.001c314 111.333 589 175.333 825 192l-96 -240c-232 -14.667 -457 -53.667 -675 -117c125.333 -47.333 245.333 -107.333 360 -180c40 -25.333 132.667 -101 278 -227c103.333 -89.333 181.666 -134 234.999 -134h58v-274z" />
    <glyph glyph-name="uFB94" unicode="&#x6af;" horiz-adv-x="805" arabic-form="initial" 
d="M789 1366l-49.999 -100c-152 -21.333 -340.667 -66 -566 -134l28 108c74 20.667 141.667 38.667 203 54c155.333 38 283.666 62 384.999 72zM841.001 1180l-103.999 -256c-230 -14 -442.667 -49.333 -638 -106c102 -31.333 181 -63 237 -95
c62.667 -36 118.667 -84 168 -144c5.33301 -43.333 5.33301 -109 0 -197c-5.33301 -85.333 -12.666 -149 -21.999 -191c-48.667 -58 -116.334 -104.667 -203.001 -140c-82 -33.333 -163.333 -50 -244 -50h-65v274h120c157.333 0 266.666 29 327.999 87
c-84.667 129.333 -219.334 216 -404.001 260c6.66699 132 20.334 254 41.001 366c295.333 104.667 557.333 168.667 786 192z" />
    <glyph glyph-name="uFB95" unicode="&#x6af;" horiz-adv-x="1014" arabic-form="medial" 
d="M841 1360l-49.999 -99.999c-152.667 -21.333 -352.334 -67 -599.001 -137l28 108c72 19.333 145 37.666 219 54.999c168 39.333 302 64 402 74zM1045 1.00098l-60.999 -0.00292969c-70 0 -155.333 50 -256 150l-227 231c6 -31.333 9 -62 9 -92c0 -29.333 -3 -58 -9 -86
c-102.667 -135.333 -257.667 -203 -465 -203h-66v274h96c95.333 0 167.666 6.33301 216.999 19c42 10.667 87.333 32.334 136 65.001c-35.333 63.333 -93.333 119.333 -174 168c-70 42.667 -145.667 73.334 -227 92.001c8 134.667 22 255.334 42 362.001
c315.333 111.333 590.333 175.333 825 192l-96 -240c-231.333 -14.667 -456.333 -53.667 -675 -117c126 -48.667 246 -108.667 360 -180c35.333 -22 128 -98 278 -228c102.667 -88.667 181 -133 235 -133h58v-274z" />
    <glyph glyph-name="uFE94" unicode="&#x6c0;" horiz-adv-x="942" arabic-form="final" 
d="M549 1159c1.33301 -8 -2.16797 -24.998 -10.501 -50.998s-15.166 -39 -20.499 -39c-16.667 -2.66699 -46.334 -8.33398 -89.001 -17.001c-65.333 -14.667 -142 -49 -230 -103c1.33301 23.333 3 46.666 5 69.999c16.667 14 51.334 33.667 104.001 59
c-57.333 28 -86 61.333 -86 100c0 30 22 65.167 66 105.5s81.333 60.5 112 60.5c42 0 83.333 -19.333 124 -58l-64 -62c-27.333 24 -51.333 36 -72 36c-15.333 0 -34 -5.66699 -56 -17c-24 -12.667 -36 -26 -36 -40c0 -16 13.333 -33.5 40 -52.5s48.334 -28.5 65.001 -28.5
c8.66699 0 32.167 5.83301 70.5 17.5s64.166 18.167 77.499 19.5zM972.999 1.00195l-81.001 -0.00195312c-116 0 -195 96.667 -237 290c-21.333 -78.667 -51.333 -144.667 -90 -198c-210 0 -349 47 -417 141c27.333 102 51.333 182 72 240
c81.333 72.667 198 137.334 350 194.001c-5.33301 25.333 -16.666 61.333 -33.999 108l119 178c35.333 -51.333 62 -139.333 80 -264c24 -165.333 39.333 -259.666 46 -282.999c25.333 -88 67.333 -132 126 -132h66v-274zM645.998 330l-44 222
c-102.667 -22 -198.667 -73.333 -288 -154c39.333 -48.667 121 -73 245 -73c31.333 0 60.333 1.66699 87 5z" />
    <glyph glyph-name="uFEF2" unicode="&#x6cc;" horiz-adv-x="1375" arabic-form="final" 
d="M1406 1h-58.999c-29.333 0 -72.666 8.5 -129.999 25.5s-101 25.5 -131 25.5c-52 0 -88 -18.667 -108 -56c21.333 -16 84 -40 188 -72c22 -6.66699 46.333 -17.667 73 -33c35.333 -20 53 -38 53 -54c0 -34.667 -10.667 -83.667 -32 -147
c-20 -60.667 -40.333 -106.667 -61 -138c-274 -86 -499.333 -129 -676 -129c-74 0 -146 17.333 -216 52c-104 51.333 -156 129.333 -156 234c0 152 60 315.333 180 490c28 0 49.333 -10.667 64 -32c-20 -34.667 -38.333 -79.334 -55 -134.001
c-17.333 -57.333 -26 -104.666 -26 -141.999c0 -134.667 111 -202 333 -202c185.333 0 361 13 527 39c-35.333 27.333 -97.333 54.666 -186 81.999c-72.667 22.667 -115.334 48 -128.001 76c24.667 116.667 52 203.334 82 260.001c51.333 97.333 120.666 146 207.999 146
c21.333 0 53.333 -2.83301 96 -8.5s74.667 -8.5 96 -8.5h64v-274z" />
    <glyph glyph-name="uFEF3" unicode="&#x6cc;" horiz-adv-x="585" arabic-form="initial" 
d="M446 430c-23.333 -141.333 -55.334 -237.333 -96.001 -288c-75.333 -94 -180.666 -141 -315.999 -141h-64v274h104c144.667 0 217 21.667 217 65c0 30 -37.667 96 -113 198l154 210c76 -101.333 114 -207.333 114 -318zM584.999 -268l-138 -138l-140 123l-128 -129
l-147 129l138 141l140 -125l128 131z" />
    <glyph glyph-name="uFEF4" unicode="&#x6cc;" horiz-adv-x="549" arabic-form="medial" 
d="M545 -268l-138 -138l-140 123l-128 -129l-147 129l138 141l140 -125l128 131zM580 1l-70.999 -0.000976562c-54 0 -104.333 23.667 -151 71c-43.333 44 -70.333 93.667 -81 149c-8 -51.333 -36.333 -100.333 -85 -147c-50.667 -48.667 -101.334 -73 -152.001 -73h-70v274
h60c67.333 0 120.333 30 159 90c31.333 48.667 47 103.667 47 165h85c0 -71.333 15 -129.666 45 -174.999c34.667 -53.333 86 -80 154 -80h60v-274z" />
    <glyph glyph-name="Hcircumflex" unicode="&#x622;" horiz-adv-x="606" arabic-form="final" 
d="M482 1474c0 -17.333 -24.3311 -35 -72.998 -53c-39.333 -14.667 -71.666 -23 -96.999 -25c-39.333 -2.66699 -73 -4.33398 -101 -5.00098c-6.66699 -9.33301 -13.334 -26.666 -20.001 -51.999c-4.66699 -17.333 -10.334 -26 -17.001 -26c-29.333 0 -44 4.66699 -44 14
c0 28 3.66699 58.667 11 92c10.667 47.333 24.667 71 42 71c10 0 24.667 -2.33301 44 -7s34 -7 44 -7c63.333 0 132.666 19 207.999 57c2 -8 3 -27.667 3 -59zM634.002 1l-61.001 0.000976562c-127.333 0 -210.333 52.667 -249 158c-26 71.333 -43.333 230.333 -52 477
c-4 122 -9 206.667 -15 254c-11.333 92 -32.666 173.667 -63.999 245l183 192c30.667 -48.667 49.667 -123.667 57 -225c2.66699 -36.667 4 -114.334 4 -233.001v-295c0 -88 6.33301 -152 19 -192c22.667 -71.333 68 -107 136 -107h42v-274z" />
    <glyph glyph-name="uFE84" unicode="&#x623;" horiz-adv-x="626" arabic-form="final" 
d="M481 1499c1.33301 -7.33301 -2.16895 -23.998 -10.502 -49.998s-15.166 -39.333 -20.499 -40c-31.333 -4 -61 -9.33301 -89 -16c-65.333 -15.333 -142 -50 -230 -104c1.33301 23.333 3 46.666 5 69.999c16.667 14 51.334 33.667 104.001 59
c-57.333 29.333 -86 62.666 -86 99.999c0 30 22 65.167 66 105.5s81.333 60.5 112 60.5c41.333 0 82.666 -19.333 123.999 -58l-64 -62c-26.667 24 -50.667 36 -72 36c-15.333 0 -34 -5.66699 -56 -17c-24 -12.667 -36 -26 -36 -40c0 -16 13.333 -33.5 40 -52.5
s48.334 -28.5 65.001 -28.5c32.667 10 82 22.333 148 37zM653.998 1.00195l-61 -0.000976562c-127.333 0 -210.333 52.667 -249 158c-26 72 -43.333 231 -52 477c-4 123.333 -9 208 -15 254c-11.333 90.667 -32.666 172.334 -63.999 245.001l183 192
c31.333 -50 50.666 -125 57.999 -225c2 -27.333 3 -105 3 -233v-295c0 -88 6.33301 -152 19 -192c22.667 -71.333 68 -107 136 -107h42v-274z" />
    <glyph glyph-name="uFE86" unicode="&#x624;" horiz-adv-x="850" arabic-form="final" 
d="M881 1l-129 0.000976562c-28 -187.333 -125.667 -379 -293 -575c-56 0 -123 12.667 -201 38c-75.333 24 -137.333 52.333 -186 85c158 64 279.333 131.333 364 202c76 63.333 141.333 146.666 196 249.999c-220 0 -363.667 31.333 -431 94c0 150 32.333 277 97 381
c43.333 69.333 93 119.333 149 150c66 0 126 -26.333 180 -79c65.333 -63.333 107 -154 125 -272h129v-274zM612 239.001c-18.667 40.667 -43.3311 77.333 -73.998 110c-38 40.667 -75.333 61 -112 61c-18.667 0 -39 -16.667 -61 -50
c-18.667 -28 -30.334 -53.333 -35.001 -76c7.33301 -22 33.666 -39.333 78.999 -52c33.333 -9.33301 66.333 -14 99 -14c42 0 76.667 7 104 21zM597.003 967c0.666992 -7.33301 -3.16797 -24.001 -11.501 -50.001s-14.833 -39.333 -19.5 -40
c-30 -4 -59.333 -9.33301 -88 -16c-65.333 -15.333 -142.333 -50 -231 -104c0 22.667 1.66699 46 5 70c20 16 54.667 35.667 104 59c-57.333 28.667 -86 62 -86 100c0 30 22 65.167 66 105.5s81.333 60.5 112 60.5c42 0 83.333 -19.333 124 -58l-64 -62
c-26.667 24 -50.667 36 -72 36c-15.333 0 -34 -5.66699 -56 -17c-24 -12.667 -36 -26 -36 -40c0 -15.333 13.333 -32.666 40 -51.999s48.334 -29 65.001 -29c2 0.666992 18.667 5.66699 50 15c36 10.667 68.667 18 98 22z" />
    <glyph glyph-name="uFE88" unicode="&#x625;" horiz-adv-x="614" arabic-form="final" 
d="M644 1h-61.001c-127.333 0 -210.333 52.667 -249 158c-26 72 -43.333 231 -52 477c-4 123.333 -9 208 -15 254c-11.333 90.667 -32.666 172.334 -63.999 245.001l183 192c30.667 -48.667 49.667 -123.667 57 -225c2.66699 -36.667 4 -114.334 4 -233.001v-295
c0 -88 6.33301 -152 19 -192c22.667 -71.333 68 -107 136 -107h42v-274zM600.999 -261c1.33301 -7.33301 -2.16699 -24 -10.5 -50s-15.166 -39.333 -20.499 -40c-30.667 -6 -60.334 -11.333 -89.001 -16c-72.667 -20 -149.334 -54.667 -230.001 -104
c1.33301 23.333 3 46.666 5 69.999c18.667 15.333 53.334 35 104.001 59c-57.333 28.667 -86 62 -86 100c0 30 22 65.167 66 105.5s81.333 60.5 112 60.5c42.667 0 84 -19.333 124 -58l-64 -62c-26 24 -50 36 -72 36c-15.333 0 -34 -5.66699 -56 -17
c-24 -12.667 -36 -26 -36 -40c0 -15.333 13.333 -32.666 40 -51.999s48.334 -29 65.001 -29c8.66699 0 32.167 5.83301 70.5 17.5s64.166 18.167 77.499 19.5z" />
    <glyph glyph-name="uFE8A" unicode="&#x626;" horiz-adv-x="1375" arabic-form="final" 
d="M1406 1h-58.999c-29.333 0 -72.666 8.5 -129.999 25.5s-101 25.5 -131 25.5c-52 0 -88 -18.667 -108 -56c21.333 -16 84 -40 188 -72c22 -6.66699 46.333 -17.667 73 -33c35.333 -20 53 -38 53 -54c0 -34.667 -10.667 -83.667 -32 -147
c-20 -60.667 -40.333 -106.667 -61 -138c-274 -86 -499.333 -129 -676 -129c-74 0 -146 17.333 -216 52c-104 51.333 -156 129.333 -156 234c0 152 60 315.333 180 490c28 0 49.333 -10.667 64 -32c-20 -34.667 -38.333 -79.334 -55 -134.001
c-17.333 -57.333 -26 -104.666 -26 -141.999c0 -134.667 111 -202 333 -202c185.333 0 361 13 527 39c-35.333 27.333 -97.333 54.666 -186 81.999c-72.667 22.667 -115.334 48 -128.001 76c24.667 116.667 52 203.334 82 260.001c51.333 97.333 120.666 146 207.999 146
c21.333 0 53.333 -2.83301 96 -8.5s74.667 -8.5 96 -8.5h64v-274zM535.001 478c1.33301 -6.66699 -1.83398 -22.166 -9.50098 -46.499s-14.167 -36.833 -19.5 -37.5c-15.333 -2.66699 -42.666 -8 -81.999 -16c-60.667 -14 -132.334 -46 -215.001 -96c1.33301 22 3 44 5 66
c15.333 12.667 47.333 31 96 55c-53.333 26 -80 57 -80 93c0 27.333 20.667 59.833 62 97.5s76 56.5 104 56.5c40 0 78.333 -18 115 -54l-59 -58c-25.333 22.667 -47.666 34 -66.999 34c-14.667 0 -32 -5.33301 -52 -16c-22.667 -12 -34 -24.333 -34 -37
c0 -14 13 -30.333 39 -49c24 -17.333 43.667 -26 59 -26c30 9.33301 76 20.666 138 33.999z" />
    <glyph glyph-name="uFE8B" unicode="&#x626;" horiz-adv-x="498" arabic-form="initial" 
d="M446 430c-23.333 -141.333 -55.334 -237.333 -96.001 -288c-75.333 -94 -180.666 -141 -315.999 -141h-64v274h104c144.667 0 217 21.667 217 65c0 30 -37.667 96 -113 198l154 210c76 -101.333 114 -207.333 114 -318zM470.999 1123
c0.666992 -7.33301 -3.16797 -23.999 -11.501 -49.999s-14.833 -39.333 -19.5 -40c-30.667 -6 -60.334 -11.333 -89.001 -16c-73.333 -20 -150 -54.667 -230 -104c1.33301 23.333 3 46.666 5 69.999c16.667 14 51.334 33.667 104.001 59
c-57.333 29.333 -86 62.666 -86 99.999c0 30 22 65.167 66 105.5s81.333 60.5 112 60.5c42 0 83.333 -19.333 124 -58l-64 -62c-25.333 24 -49.333 36 -72 36c-15.333 0 -34 -5.66699 -56 -17c-24 -12.667 -36 -26 -36 -40c0 -15.333 13.333 -32.666 40 -51.999
s48.334 -29 65.001 -29c2 0.666992 18.667 5.66699 50 15c36 10.667 68.667 18 98 22z" />
    <glyph glyph-name="uFE8C" unicode="&#x626;" horiz-adv-x="549" arabic-form="medial" 
d="M393 967c0.666992 -7.33301 -3.16504 -24.001 -11.498 -50.001s-14.833 -39.333 -19.5 -40c-30.667 -6 -60.334 -11.333 -89.001 -16c-72.667 -20 -149.334 -54.667 -230.001 -104c0 22.667 1.66699 46 5 70c20 16 54.667 35.667 104 59c-57.333 28.667 -86 62 -86 100
c0 30 22 65.167 66 105.5s81.333 60.5 112 60.5c41.333 0 82.666 -19.333 123.999 -58l-64 -62c-26.667 24 -50.667 36 -72 36c-15.333 0 -34 -5.66699 -56 -17c-24 -12.667 -36 -26 -36 -40c0 -15.333 13.333 -32.666 40 -51.999s48.334 -29 65.001 -29
c2 0.666992 18.667 5.66699 50 15c36 10.667 68.667 18 98 22zM580.001 0.999023l-70.999 -0.000976562c-54 0 -104.333 23.667 -151 71c-43.333 44 -70.333 93.667 -81 149c-8 -51.333 -36.333 -100.333 -85 -147c-50.667 -48.667 -101.334 -73 -152.001 -73h-70v274h60
c67.333 0 120.333 30 159 90c31.333 48.667 47 103.667 47 165h85c0 -71.333 15 -129.666 45 -174.999c34.667 -53.333 86 -80 154 -80h60v-274z" />
    <glyph glyph-name="uFE8E" unicode="&#x627;" horiz-adv-x="564" arabic-form="final" 
d="M594 1l-61.001 0.000976562c-127.333 0 -210.333 52.667 -249 158c-26 71.333 -43.333 230.333 -52 477c-4 122 -9 206.667 -15 254c-11.333 92 -32.666 173.667 -63.999 245l183 192c30.667 -48.667 49.667 -123.667 57 -225c2.66699 -36.667 4 -114.334 4 -233.001
v-295c0 -88 6.33301 -152 19 -192c22.667 -71.333 68 -107 136 -107h42v-274z" />
    <glyph glyph-name="uFE90" unicode="&#x628;" horiz-adv-x="1698" arabic-form="final" 
d="M1729 1l-78.999 0.00195312c-68 0 -124.333 18.667 -169 56c-48 39.333 -73 92.333 -75 159c-194.667 -143.333 -448.667 -215 -762 -215c-150 0 -263.333 21 -340 63c-102 56 -153 152.333 -153 289c0 151.333 40 283 120 395c33.333 4 57 -7.33301 71 -34
c-40.667 -94.667 -61 -170.334 -61 -227.001c0 -74.667 45.667 -130.667 137 -168c73.333 -30 167.333 -45 282 -45c115.333 0 229.666 10 342.999 30c148.667 26 255 64 319 114c40 30.667 70.667 77 92 139c8 5.33301 21.333 5.66602 40 0.999023
c18 -4.66699 31 -11.667 39 -21c-15.333 -48 -23 -89.667 -23 -125c0 -91.333 52.667 -137 158 -137h61v-274zM1001 -319.998l-161 -152l-158 158l164 150z" />
    <glyph glyph-name="uFE91" unicode="&#x628;" horiz-adv-x="450" arabic-form="initial" 
d="M446 430c-23.333 -141.333 -55.334 -237.333 -96.001 -288c-75.333 -94 -180.666 -141 -315.999 -141h-64v274h104c144.667 0 217 21.667 217 65c0 30 -37.667 96 -113 198l154 210c76 -101.333 114 -207.333 114 -318zM436.999 -320l-161 -152l-158 158l164 150z" />
    <glyph glyph-name="uFE92" unicode="&#x628;" horiz-adv-x="549" arabic-form="medial" 
d="M580 1l-70.999 -0.000976562c-54 0 -104.333 23.667 -151 71c-43.333 44 -70.333 93.667 -81 149c-8 -51.333 -36.333 -100.333 -85 -147c-50.667 -48.667 -101.334 -73 -152.001 -73h-70v274h60c67.333 0 120.333 30 159 90c31.333 48.667 47 103.667 47 165h85
c0 -71.333 15 -129.666 45 -174.999c34.667 -53.333 86 -80 154 -80h60v-274zM401.001 -320.001l-161 -152l-158 158l164 150z" />
    <glyph glyph-name="uFE96" unicode="&#x62a;" horiz-adv-x="1698" arabic-form="final" 
d="M1729 1l-78.999 0.00195312c-68 0 -124.333 18.667 -169 56c-48 39.333 -73 92.333 -75 159c-194.667 -143.333 -448.667 -215 -762 -215c-150 0 -263.333 21 -340 63c-102 56 -153 152.333 -153 289c0 151.333 40 283 120 395c33.333 4 57 -7.33301 71 -34
c-40.667 -94.667 -61 -170.334 -61 -227.001c0 -74.667 45.667 -130.667 137 -168c73.333 -30 167.333 -45 282 -45c115.333 0 229.666 10 342.999 30c148.667 26 255 64 319 114c40 30.667 70.667 77 92 139c8 5.33301 21.333 5.66602 40 0.999023
c18 -4.66699 31 -11.667 39 -21c-15.333 -48 -23 -89.667 -23 -125c0 -91.333 52.667 -137 158 -137h61v-274zM1218 907.002l-148 -139l-145 146l152 136zM852.001 888.002l-148 -140l-145 147l151 135z" />
    <glyph glyph-name="uFE97" unicode="&#x62a;" horiz-adv-x="592" arabic-form="initial" 
d="M446 430c-23.333 -141.333 -55.334 -237.333 -96.001 -288c-75.333 -94 -180.666 -141 -315.999 -141h-64v274h104c144.667 0 217 21.667 217 65c0 30 -37.667 96 -113 198l154 210c76 -101.333 114 -207.333 114 -318zM587.999 1036l-138 -138l-140 123l-128 -129
l-147 129l138 141l140 -125l128 131z" />
    <glyph glyph-name="uFE98" unicode="&#x62a;" horiz-adv-x="550" arabic-form="medial" 
d="M540 924l-138 -138l-140 123l-128 -129l-147 129l138 141l140 -125l128 131zM580 1l-70.999 -0.000976562c-54 0 -104.333 23.667 -151 71c-43.333 44 -70.333 93.667 -81 149c-8 -51.333 -36.333 -100.333 -85 -147c-50.667 -48.667 -101.334 -73 -152.001 -73h-70v274
h60c67.333 0 120.333 30 159 90c31.333 48.667 47 103.667 47 165h85c0 -71.333 15 -129.666 45 -174.999c34.667 -53.333 86 -80 154 -80h60v-274z" />
    <glyph glyph-name="uFE9A" unicode="&#x62b;" horiz-adv-x="1698" arabic-form="final" 
d="M1729 1l-78.999 0.00195312c-68 0 -124.333 18.667 -169 56c-48 39.333 -73 92.333 -75 159c-194.667 -143.333 -448.667 -215 -762 -215c-150 0 -263.333 21 -340 63c-102 56 -153 152.333 -153 289c0 151.333 40 283 120 395c33.333 4 57 -7.33301 71 -34
c-40.667 -94.667 -61 -170.334 -61 -227.001c0 -74.667 45.667 -130.667 137 -168c73.333 -30 167.333 -45 282 -45c115.333 0 229.666 10 342.999 30c148.667 26 255 64 319 114c40 30.667 70.667 77 92 139c8 5.33301 21.333 5.66602 40 0.999023
c18 -4.66699 31 -11.667 39 -21c-15.333 -48 -23 -89.667 -23 -125c0 -91.333 52.667 -137 158 -137h61v-274zM596.001 886.002l127 120l126 -127l-132 -117zM877.001 884.002l129 121l124 -127l-130 -117zM741.001 1113l127 120l126 -125l-132 -118z" />
    <glyph glyph-name="uFE9B" unicode="&#x62b;" horiz-adv-x="576" arabic-form="initial" 
d="M446 430c-23.333 -141.333 -55.334 -237.333 -96.001 -288c-75.333 -94 -180.666 -141 -315.999 -141h-64v274h104c144.667 0 217 21.667 217 65c0 30 -37.667 96 -113 198l154 210c76 -101.333 114 -207.333 114 -318zM43.999 970l127 120l126 -127l-132 -117z
M324.999 968l129 121l124 -127l-130 -117zM188.999 1197l127 120l126 -125l-132 -118z" />
    <glyph glyph-name="uFE9C" unicode="&#x62b;" horiz-adv-x="552" arabic-form="medial" 
d="M8 916l127 120l126 -127l-132 -117zM289 914l129 121l124 -127l-130 -117zM153 1143l127 120l126 -125l-132 -118zM580 1l-70.999 -0.000976562c-54 0 -104.333 23.667 -151 71c-43.333 44 -70.333 93.667 -81 149c-8 -51.333 -36.333 -100.333 -85 -147
c-50.667 -48.667 -101.334 -73 -152.001 -73h-70v274h60c67.333 0 120.333 30 159 90c31.333 48.667 47 103.667 47 165h85c0 -71.333 15 -129.666 45 -174.999c34.667 -53.333 86 -80 154 -80h60v-274z" />
    <glyph glyph-name="uFE9E" unicode="&#x62c;" horiz-adv-x="1324" arabic-form="final" 
d="M1353 1l-93.001 -0.000976562c-263.333 0 -415.333 147.667 -456 443c-133.333 -34 -241.333 -110.667 -324 -230c-63.333 -91.333 -95 -171 -95 -239c0 -242.667 209.333 -364 628 -364c58.667 0 160 4.33301 304 13l-94 -126
c-55.333 -19.333 -143.666 -37 -264.999 -53c-114.667 -15.333 -208.334 -23 -281.001 -23c-144.667 0 -264.667 32.333 -360 97c-110 74.667 -165 181 -165 319c0 132.667 63.667 266.667 191 402c103.333 110 211.666 188.667 324.999 236c-174 38.667 -270 58 -288 58
c-36 0 -75.667 -52 -119 -156c-32 0 -56.333 9.66699 -73 29c58.667 144.667 95 231.334 109 260.001c42.667 87.333 81 131 115 131c48.667 0 136.834 -19.5 264.501 -58.5s226.834 -58.167 297.501 -57.5l313 2l-132 -234h-247c20 -58.667 43.667 -99 71 -121
c45.333 -36 119 -54 221 -54h153v-274zM868.999 -48.001l-161 -152l-158 158l164 150z" />
    <glyph glyph-name="uFE9F" unicode="&#x62c;" horiz-adv-x="1044" arabic-form="initial" 
d="M1040 371l-133.996 -218c-94.667 18.667 -157.334 28 -188.001 28c-52.667 0 -158.667 -30 -318 -90s-279.333 -90 -360 -90h-70v274h153c178 0 327.667 16 449 48c-66 36 -146.667 86.333 -242 151c-60.667 41.333 -101 62 -121 62s-56.333 -45.667 -109 -137
c-9.33301 -1.33301 -21.833 2 -37.5 10s-25.834 16.333 -30.501 25c103.333 224 186.666 336 249.999 336c41.333 0 108.666 -36 201.999 -108c142.667 -109.333 231 -174.666 265 -195.999c111.333 -68.667 208.333 -100.334 291 -95.001zM591.004 -306l-161 -152l-158 158
l164 150z" />
    <glyph glyph-name="uFEA0" unicode="&#x62c;" horiz-adv-x="1310" arabic-form="medial" 
d="M1340 1l-78.999 0.000976562c-112.667 0 -202.334 33.667 -269.001 101c-53.333 54 -99.666 140.667 -138.999 260c-213.333 -150.667 -340.333 -237.334 -381 -260.001c-120.667 -67.333 -242.667 -101 -366 -101h-136v274h180c108.667 0 197.667 11 267 33
c47.333 14.667 136.333 54.667 267 120c-254 100 -397.333 150 -430 150c-29.333 0 -53 -9.33301 -71 -28c-16 -16 -38 -50.667 -66 -104c-10.667 -4.66699 -20.334 -7 -29.001 -7c-18 0 -32.333 9 -43 27c45.333 118 80 199.333 104 244c44.667 84 87.667 126 129 126
c26.667 0 118.167 -35 274.5 -105s270.166 -105 341.499 -105c78.667 0 201.334 16 368.001 48l-106 -242c-87.333 -9.33301 -159.333 -20 -216 -32c40 -83.333 117.333 -125 232 -125h168v-274zM791.001 -305.999l-161 -152l-158 158l164 150z" />
    <glyph glyph-name="uFEA2" unicode="&#x62d;" horiz-adv-x="1324" arabic-form="final" 
d="M1353 1l-93.001 -0.000976562c-263.333 0 -415.333 147.667 -456 443c-133.333 -34 -241.333 -110.667 -324 -230c-63.333 -91.333 -95 -171 -95 -239c0 -242.667 209.333 -364 628 -364c58.667 0 160 4.33301 304 13l-94 -126
c-55.333 -19.333 -143.666 -37 -264.999 -53c-114.667 -15.333 -208.334 -23 -281.001 -23c-144.667 0 -264.667 32.333 -360 97c-110 74.667 -165 181 -165 319c0 132.667 63.667 266.667 191 402c103.333 110 211.666 188.667 324.999 236c-174 38.667 -270 58 -288 58
c-36 0 -75.667 -52 -119 -156c-32 0 -56.333 9.66699 -73 29c58.667 144.667 95 231.334 109 260.001c42.667 87.333 81 131 115 131c48.667 0 136.834 -19.5 264.501 -58.5s226.834 -58.167 297.501 -57.5l313 2l-132 -234h-247c20 -58.667 43.667 -99 71 -121
c45.333 -36 119 -54 221 -54h153v-274z" />
    <glyph glyph-name="uFEA3" unicode="&#x62d;" horiz-adv-x="1044" arabic-form="initial" 
d="M1040 371l-133.996 -218c-94.667 18.667 -157.334 28 -188.001 28c-52.667 0 -158.667 -30 -318 -90s-279.333 -90 -360 -90h-70v274h153c178 0 327.667 16 449 48c-66 36 -146.667 86.333 -242 151c-60.667 41.333 -101 62 -121 62s-56.333 -45.667 -109 -137
c-9.33301 -1.33301 -21.833 2 -37.5 10s-25.834 16.333 -30.501 25c103.333 224 186.666 336 249.999 336c41.333 0 108.666 -36 201.999 -108c142.667 -109.333 231 -174.666 265 -195.999c111.333 -68.667 208.333 -100.334 291 -95.001z" />
    <glyph glyph-name="uFEA4" unicode="&#x62d;" horiz-adv-x="1310" arabic-form="medial" 
d="M1340 1l-78.999 0.000976562c-112.667 0 -202.334 33.667 -269.001 101c-53.333 54 -99.666 140.667 -138.999 260c-213.333 -150.667 -340.333 -237.334 -381 -260.001c-120.667 -67.333 -242.667 -101 -366 -101h-136v274h180c108.667 0 197.667 11 267 33
c47.333 14.667 136.333 54.667 267 120c-254 100 -397.333 150 -430 150c-29.333 0 -53 -9.33301 -71 -28c-16 -16 -38 -50.667 -66 -104c-10.667 -4.66699 -20.334 -7 -29.001 -7c-18 0 -32.333 9 -43 27c45.333 118 80 199.333 104 244c44.667 84 87.667 126 129 126
c26.667 0 118.167 -35 274.5 -105s270.166 -105 341.499 -105c78.667 0 201.334 16 368.001 48l-106 -242c-87.333 -9.33301 -159.333 -20 -216 -32c40 -83.333 117.333 -125 232 -125h168v-274z" />
    <glyph glyph-name="uFEA6" unicode="&#x62e;" horiz-adv-x="1324" arabic-form="final" 
d="M1353 1l-93.001 -0.000976562c-263.333 0 -415.333 147.667 -456 443c-133.333 -34 -241.333 -110.667 -324 -230c-63.333 -91.333 -95 -171 -95 -239c0 -242.667 209.333 -364 628 -364c58.667 0 160 4.33301 304 13l-94 -126
c-55.333 -19.333 -143.666 -37 -264.999 -53c-114.667 -15.333 -208.334 -23 -281.001 -23c-144.667 0 -264.667 32.333 -360 97c-110 74.667 -165 181 -165 319c0 132.667 63.667 266.667 191 402c103.333 110 211.666 188.667 324.999 236c-174 38.667 -270 58 -288 58
c-36 0 -75.667 -52 -119 -156c-32 0 -56.333 9.66699 -73 29c58.667 144.667 95 231.334 109 260.001c42.667 87.333 81 131 115 131c48.667 0 136.834 -19.5 264.501 -58.5s226.834 -58.167 297.501 -57.5l313 2l-132 -234h-247c20 -58.667 43.667 -99 71 -121
c45.333 -36 119 -54 221 -54h153v-274zM942.999 1092l-161 -152l-158 158l164 150z" />
    <glyph glyph-name="uFEA7" unicode="&#x62e;" horiz-adv-x="1044" arabic-form="initial" 
d="M1040 371l-133.996 -218c-94.667 18.667 -157.334 28 -188.001 28c-52.667 0 -158.667 -30 -318 -90s-279.333 -90 -360 -90h-70v274h153c178 0 327.667 16 449 48c-66 36 -146.667 86.333 -242 151c-60.667 41.333 -101 62 -121 62s-56.333 -45.667 -109 -137
c-9.33301 -1.33301 -21.833 2 -37.5 10s-25.834 16.333 -30.501 25c103.333 224 186.666 336 249.999 336c41.333 0 108.666 -36 201.999 -108c142.667 -109.333 231 -174.666 265 -195.999c111.333 -68.667 208.333 -100.334 291 -95.001zM593.004 1092l-161 -152l-158 158
l164 150z" />
    <glyph glyph-name="uFEA8" unicode="&#x62e;" horiz-adv-x="1310" arabic-form="medial" 
d="M1340 1l-78.999 0.000976562c-112.667 0 -202.334 33.667 -269.001 101c-53.333 54 -99.666 140.667 -138.999 260c-213.333 -150.667 -340.333 -237.334 -381 -260.001c-120.667 -67.333 -242.667 -101 -366 -101h-136v274h180c108.667 0 197.667 11 267 33
c47.333 14.667 136.333 54.667 267 120c-254 100 -397.333 150 -430 150c-29.333 0 -53 -9.33301 -71 -28c-16 -16 -38 -50.667 -66 -104c-10.667 -4.66699 -20.334 -7 -29.001 -7c-18 0 -32.333 9 -43 27c45.333 118 80 199.333 104 244c44.667 84 87.667 126 129 126
c26.667 0 118.167 -35 274.5 -105s270.166 -105 341.499 -105c78.667 0 201.334 16 368.001 48l-106 -242c-87.333 -9.33301 -159.333 -20 -216 -32c40 -83.333 117.333 -125 232 -125h168v-274zM763.001 1092l-161 -152l-158 158l164 150z" />
    <glyph glyph-name="uFEAA" unicode="&#x62f;" horiz-adv-x="1016" arabic-form="final" 
d="M1046 1h-88c-91.333 0 -162 72.333 -212 217c-20 -65.333 -45 -126 -75 -182c-89.333 -42 -185 -63 -287 -63c-109.333 0 -187 23 -233 69c9.33301 74.667 25.666 179.667 48.999 315h56c-1.33301 -44.667 14.334 -77 47.001 -97c26.667 -16 63.667 -23.333 111 -22
c31.333 0.666992 78 5.66699 140 15c94.667 14 146.667 31 156 51c-51.333 189.333 -114 325.333 -188 408l156 204c37.333 -36.667 70.333 -112.667 99 -228l69 -278c31.333 -90 73.333 -135 126 -135h74v-274z" />
    <glyph glyph-name="uFEAC" unicode="&#x630;" horiz-adv-x="1016" arabic-form="final" 
d="M1046 1h-88c-91.333 0 -162 72.333 -212 217c-20 -65.333 -45 -126 -75 -182c-89.333 -42 -185 -63 -287 -63c-109.333 0 -187 23 -233 69c9.33301 74.667 25.666 179.667 48.999 315h56c-1.33301 -44.667 14.334 -77 47.001 -97c26.667 -16 63.667 -23.333 111 -22
c31.333 0.666992 78 5.66699 140 15c94.667 14 146.667 31 156 51c-51.333 189.333 -114 325.333 -188 408l156 204c37.333 -36.667 70.333 -112.667 99 -228l69 -278c31.333 -90 73.333 -135 126 -135h74v-274zM823 1212l-161 -152l-158 158l164 150z" />
    <glyph glyph-name="uFEAE" unicode="&#x631;" horiz-adv-x="916" arabic-form="final" 
d="M945 1l-59 -0.000976562c-48 0 -94.333 16.667 -139 50c-44.667 -246 -158 -452 -340 -618c-26.667 0 -75 13.333 -145 40c-80.667 30.667 -143.667 64.334 -189 101.001c312.667 149.333 491.667 292.333 537 429c-27.333 78 -95 155.333 -203 232l136 269
c84.667 -95.333 141.667 -154 171 -176c47.333 -35.333 103.333 -53 168 -53h63v-274z" />
    <glyph glyph-name="uFEB0" unicode="&#x632;" horiz-adv-x="916" arabic-form="final" 
d="M945 1l-59 -0.000976562c-48 0 -94.333 16.667 -139 50c-44.667 -246 -158 -452 -340 -618c-26.667 0 -75 13.333 -145 40c-80.667 30.667 -143.667 64.334 -189 101.001c312.667 149.333 491.667 292.333 537 429c-27.333 78 -95 155.333 -203 232l136 269
c84.667 -95.333 141.667 -154 171 -176c47.333 -35.333 103.333 -53 168 -53h63v-274zM689 815.999l-161 -152l-158 158l164 150z" />
    <glyph glyph-name="uFEB2" unicode="&#x633;" horiz-adv-x="2304" arabic-form="final" 
d="M2335 1h-86c-104.667 0 -172.334 63 -203.001 189c-52 -125.333 -128 -188 -228 -188s-168.667 58 -206 174c-40 -116.667 -113 -175 -219 -175c-44.667 0 -83 13.333 -115 40c1.33301 -13.333 2 -27.333 2 -42c0 -42 -4.33301 -93.667 -13 -155
c-10 -72.667 -22 -122 -36 -148c-58 -68 -137.333 -126.333 -238 -175c-125.333 -60.667 -259 -91 -401 -91c-172.667 0 -296 46 -370 138c-47.333 59.333 -71 132 -71 218c0 124 71 288.667 213 494c4 1.33301 8 2 12 2c32 0 52 -13.333 60 -40
c-74.667 -120 -112 -222 -112 -306c0 -82 33.667 -143.667 101 -185c55.333 -34 126.666 -51 213.999 -51c117.333 0 230.333 21.333 339 64c96.667 38 160.667 79.333 192 124c-29.333 153.333 -90.666 275.666 -183.999 366.999l106 263
c72 -102 117.667 -162.333 137 -181c44.667 -43.333 98.334 -65 161.001 -65c72 0 125.333 33 160 99c24 45.333 36 95 36 149h90c0 -80.667 6.66699 -137 20 -169c22.667 -54 68.667 -81 138 -81c64 0 112 32.333 144 97c23.333 46.667 35 97.334 35 152.001h90
c0 -77.333 6.66699 -132.333 20 -165c22 -54 66.333 -81 133 -81h79v-272z" />
    <glyph glyph-name="uFEB3" unicode="&#x633;" horiz-adv-x="1322" arabic-form="initial" 
d="M1318 459c0 -25.333 -11.665 -73.668 -34.998 -145.001c-10.667 -32.667 -29 -80.667 -55 -144c-23.333 -46 -57.666 -85 -102.999 -117c-48.667 -34.667 -97.334 -52 -146.001 -52c-52.667 0 -99 21.333 -139 64c-38 39.333 -61.333 86 -70 140
c-37.333 -136 -120 -204 -248 -204c-94 0 -168 67.667 -222 203c-68.667 -135.333 -151.334 -203 -248.001 -203h-82v274h101c67.333 0 117 33 149 99c22 45.333 33 94.333 33 147h89c0 -164.667 61.333 -247 184 -247c81.333 0 140 31.667 176 95
c24.667 43.333 37 94 37 152h90c0 -164 53.667 -246 161 -246c79.333 0 142.666 20.333 189.999 61c0 18 -42.667 88.667 -128 212l154 202c24 -25.333 48 -67.666 72 -126.999c26.667 -65.333 40 -120 40 -164zM290.002 191.998z" />
    <glyph glyph-name="uFEB4" unicode="&#x633;" horiz-adv-x="1466" arabic-form="medial" 
d="M1495 1h-86.001c-56 0 -106.667 24 -152 72c-41.333 44.667 -67 96 -77 154c-11.333 -56.667 -37.666 -106.667 -78.999 -150c-48.667 -50.667 -106.334 -76 -173.001 -76c-106.667 0 -174.667 67.333 -204 202c-54.667 -134 -130 -201 -226 -201
c-56.667 0 -105 23 -145 69c-29.333 34 -50.333 74.333 -63 121c-54.667 -127.333 -134 -191 -238 -191h-82v273h99c61.333 0 109.666 29 144.999 87c29.333 48 44 101 44 159h90c0 -164 53 -246 159 -246c70.667 0 122.334 32 155.001 96c22.667 44 34 94 34 150h90
c0 -76 7.33301 -131.333 22 -166c22.667 -54 66.334 -81 131.001 -81c73.333 0 128.333 32.333 165 97c26 46 39 96.667 39 152h90c0 -166 57.667 -249 173 -249h89v-272z" />
    <glyph glyph-name="uFEB6" unicode="&#x634;" horiz-adv-x="2304" arabic-form="final" 
d="M2335 1h-86c-104.667 0 -172.334 63 -203.001 189c-52 -125.333 -128 -188 -228 -188s-168.667 58 -206 174c-40 -116.667 -113 -175 -219 -175c-44.667 0 -83 13.333 -115 40c1.33301 -13.333 2 -27.333 2 -42c0 -42 -4.33301 -93.667 -13 -155
c-10 -72.667 -22 -122 -36 -148c-58 -68 -137.333 -126.333 -238 -175c-125.333 -60.667 -259 -91 -401 -91c-172.667 0 -296 46 -370 138c-47.333 59.333 -71 132 -71 218c0 124 71 288.667 213 494c4 1.33301 8 2 12 2c32 0 52 -13.333 60 -40
c-74.667 -120 -112 -222 -112 -306c0 -82 33.667 -143.667 101 -185c55.333 -34 126.666 -51 213.999 -51c117.333 0 230.333 21.333 339 64c96.667 38 160.667 79.333 192 124c-29.333 153.333 -90.666 275.666 -183.999 366.999l106 263
c72 -102 117.667 -162.333 137 -181c44.667 -43.333 98.334 -65 161.001 -65c72 0 125.333 33 160 99c24 45.333 36 95 36 149h90c0 -80.667 6.66699 -137 20 -169c22.667 -54 68.667 -81 138 -81c64 0 112 32.333 144 97c23.333 46.667 35 97.334 35 152.001h90
c0 -77.333 6.66699 -132.333 20 -165c22 -54 66.333 -81 133 -81h79v-272zM1569 849l127 120l126 -127l-132 -117zM1850 847l129 121l124 -127l-130 -117zM1714 1076l127 120l126 -125l-132 -118z" />
    <glyph glyph-name="uFEB7" unicode="&#x634;" horiz-adv-x="1322" arabic-form="initial" 
d="M1318 459c0 -25.333 -11.665 -73.668 -34.998 -145.001c-10.667 -32.667 -29 -80.667 -55 -144c-23.333 -46 -57.666 -85 -102.999 -117c-48.667 -34.667 -97.334 -52 -146.001 -52c-52.667 0 -99 21.333 -139 64c-38 39.333 -61.333 86 -70 140
c-37.333 -136 -120 -204 -248 -204c-94 0 -168 67.667 -222 203c-68.667 -135.333 -151.334 -203 -248.001 -203h-82v274h101c67.333 0 117 33 149 99c22 45.333 33 94.333 33 147h89c0 -164.667 61.333 -247 184 -247c81.333 0 140 31.667 176 95
c24.667 43.333 37 94 37 152h90c0 -164 53.667 -246 161 -246c79.333 0 142.666 20.333 189.999 61c0 18 -42.667 88.667 -128 212l154 202c24 -25.333 48 -67.666 72 -126.999c26.667 -65.333 40 -120 40 -164zM693.002 1077l127 120l126 -127l-132 -117zM974.002 1075
l129 121l124 -127l-130 -117zM838.002 1304l127 120l126 -125l-132 -118z" />
    <glyph glyph-name="uFEB8" unicode="&#x634;" horiz-adv-x="1466" arabic-form="medial" 
d="M1495 1h-86.001c-56 0 -106.667 24 -152 72c-41.333 44.667 -67 96 -77 154c-11.333 -56.667 -37.666 -106.667 -78.999 -150c-48.667 -50.667 -106.334 -76 -173.001 -76c-106.667 0 -174.667 67.333 -204 202c-54.667 -134 -130 -201 -226 -201
c-56.667 0 -105 23 -145 69c-29.333 34 -50.333 74.333 -63 121c-54.667 -127.333 -134 -191 -238 -191h-82v273h99c61.333 0 109.666 29 144.999 87c29.333 48 44 101 44 159h90c0 -164 53 -246 159 -246c70.667 0 122.334 32 155.001 96c22.667 44 34 94 34 150h90
c0 -76 7.33301 -131.333 22 -166c22.667 -54 66.334 -81 131.001 -81c73.333 0 128.333 32.333 165 97c26 46 39 96.667 39 152h90c0 -166 57.667 -249 173 -249h89v-272zM698.999 849l127 120l126 -127l-132 -117zM979.999 847l129 121l124 -127l-130 -117zM843.999 1076
l127 120l126 -125l-132 -118z" />
    <glyph glyph-name="uFEBA" unicode="&#x635;" horiz-adv-x="2384" arabic-form="final" 
d="M2414 1l-57 0.000976562c-82.667 0 -155 19 -217 57c-29.333 18 -68.666 51.667 -117.999 101c-162.667 -105.333 -350 -158 -562 -158c-87.333 0 -148 13.333 -182 40c1.33301 -12 2 -25.333 2 -40c0 -52.667 -6.33301 -114.667 -19 -186
c-11.333 -64 -21.333 -103.667 -30 -119c-58 -68 -137.333 -126.333 -238 -175c-125.333 -60.667 -259 -91 -401 -91c-172.667 0 -296 46 -370 138c-47.333 59.333 -71 132 -71 218c0 124 71 288.667 213 494c4 1.33301 8 2 12 2c32 0 52 -13.333 60 -40
c-74.667 -120 -112 -222 -112 -306c0 -82 33.667 -143.667 101 -185c55.333 -34 126.666 -51 213.999 -51c117.333 0 230.333 21.333 339 64c96.667 38 160.667 79.333 192 124c-29.333 153.333 -90.666 275.666 -183.999 366.999l106 263
c72.667 -101.333 122 -163.333 148 -186c46.667 -41.333 104.667 -62 174 -62c106 128 190.667 219.667 254 275c123.333 107.333 238.666 161 345.999 161c80 0 149 -30 207 -90c51.333 -52.667 77 -107.334 77 -164.001c0 -11.333 -16.667 -37.666 -50 -78.999
c-27.333 -33.333 -49.333 -58.333 -66 -75c28 -15.333 91.333 -23 190 -23h42v-274zM2067 375.001c0 43.333 -16.5 78.668 -49.5 106.001s-71.5 41 -115.5 41c-62 0 -131.333 -32.333 -208 -97c-52.667 -44.667 -102 -98.334 -148 -161.001c265.333 0 439 37 521 111z" />
    <glyph glyph-name="uFEBB" unicode="&#x635;" horiz-adv-x="1386" arabic-form="initial" 
d="M1384 452c0 -11.333 -26.668 -49.666 -80.001 -114.999c-64 -78 -127.667 -137.333 -191 -178c-99.333 -64 -189 -106.667 -269 -128c-74 -20 -173.333 -30 -298 -30c-98.667 0 -171.667 22 -219 66c-28 26 -50.333 67.667 -67 125
c-51.333 -127.333 -127.666 -191 -228.999 -191h-61v274h58c63.333 0 111.333 25.333 144 76c27.333 42 41 96.667 41 164h85c0 -160.667 69 -241 207 -241c100 124 184 215.333 252 274c122 105.333 236.333 158 343 158c80 0 149 -30 207 -90
c51.333 -52.667 77 -107.334 77 -164.001zM1153 375c0 44.667 -16.167 80.333 -48.5 107s-71.166 40 -116.499 40c-110.667 0 -229.334 -86 -356.001 -258c265.333 0 439 37 521 111z" />
    <glyph glyph-name="uFEBC" unicode="&#x635;" horiz-adv-x="1470" arabic-form="medial" 
d="M1500 1l-57.002 0.000976562c-83.333 0 -155.666 19 -216.999 57c-26 16 -65.333 49.667 -118 101c-162.667 -105.333 -350 -158 -562 -158c-98.667 0 -171.667 22 -219 66c-28 26 -50.333 67.667 -67 125c-51.333 -127.333 -127.666 -191 -228.999 -191h-61v274h58
c63.333 0 111.333 25.333 144 76c27.333 42 41 96.667 41 164h85c0 -160.667 69 -241 207 -241c100 124 184 215.333 252 274c122 105.333 236.333 158 343 158c80 0 149 -30 207 -90c51.333 -52.667 77 -107.334 77 -164.001c0 -6 -11.667 -25.333 -35 -58
c-27.333 -38 -54.333 -70 -81 -96c28 -15.333 91.333 -23 190 -23h42v-274zM1153 375.001c0 44.667 -16.167 80.333 -48.5 107s-71.166 40 -116.499 40c-110.667 0 -229.334 -86 -356.001 -258c265.333 0 439 37 521 111z" />
    <glyph glyph-name="uFEBE" unicode="&#x636;" horiz-adv-x="2384" arabic-form="final" 
d="M2414 1l-57 0.000976562c-82.667 0 -155 19 -217 57c-29.333 18 -68.666 51.667 -117.999 101c-162.667 -105.333 -350 -158 -562 -158c-87.333 0 -148 13.333 -182 40c1.33301 -12 2 -25.333 2 -40c0 -52.667 -6.33301 -114.667 -19 -186
c-11.333 -64 -21.333 -103.667 -30 -119c-58 -68 -137.333 -126.333 -238 -175c-125.333 -60.667 -259 -91 -401 -91c-172.667 0 -296 46 -370 138c-47.333 59.333 -71 132 -71 218c0 124 71 288.667 213 494c4 1.33301 8 2 12 2c32 0 52 -13.333 60 -40
c-74.667 -120 -112 -222 -112 -306c0 -82 33.667 -143.667 101 -185c55.333 -34 126.666 -51 213.999 -51c117.333 0 230.333 21.333 339 64c96.667 38 160.667 79.333 192 124c-29.333 153.333 -90.666 275.666 -183.999 366.999l106 263
c72.667 -101.333 122 -163.333 148 -186c46.667 -41.333 104.667 -62 174 -62c106 128 190.667 219.667 254 275c123.333 107.333 238.666 161 345.999 161c80 0 149 -30 207 -90c51.333 -52.667 77 -107.334 77 -164.001c0 -11.333 -16.667 -37.666 -50 -78.999
c-27.333 -33.333 -49.333 -58.333 -66 -75c28 -15.333 91.333 -23 190 -23h42v-274zM2067 375.001c0 43.333 -16.5 78.668 -49.5 106.001s-71.5 41 -115.5 41c-62 0 -131.333 -32.333 -208 -97c-52.667 -44.667 -102 -98.334 -148 -161.001c265.333 0 439 37 521 111z
M2039 1032l-161 -152l-158 158l164 150z" />
    <glyph glyph-name="uFEBF" unicode="&#x636;" horiz-adv-x="1386" arabic-form="initial" 
d="M1384 452c0 -11.333 -26.668 -49.666 -80.001 -114.999c-64 -78 -127.667 -137.333 -191 -178c-99.333 -64 -189 -106.667 -269 -128c-74 -20 -173.333 -30 -298 -30c-98.667 0 -171.667 22 -219 66c-28 26 -50.333 67.667 -67 125
c-51.333 -127.333 -127.666 -191 -228.999 -191h-61v274h58c63.333 0 111.333 25.333 144 76c27.333 42 41 96.667 41 164h85c0 -160.667 69 -241 207 -241c100 124 184 215.333 252 274c122 105.333 236.333 158 343 158c80 0 149 -30 207 -90
c51.333 -52.667 77 -107.334 77 -164.001zM1153 375c0 44.667 -16.167 80.333 -48.5 107s-71.166 40 -116.499 40c-110.667 0 -229.334 -86 -356.001 -258c265.333 0 439 37 521 111zM1139 1032l-161 -152l-158 158l164 150z" />
    <glyph glyph-name="uFEC0" unicode="&#x636;" horiz-adv-x="1470" arabic-form="medial" 
d="M1500 1l-57.002 0.000976562c-83.333 0 -155.666 19 -216.999 57c-26 16 -65.333 49.667 -118 101c-162.667 -105.333 -350 -158 -562 -158c-98.667 0 -171.667 22 -219 66c-28 26 -50.333 67.667 -67 125c-51.333 -127.333 -127.666 -191 -228.999 -191h-61v274h58
c63.333 0 111.333 25.333 144 76c27.333 42 41 96.667 41 164h85c0 -160.667 69 -241 207 -241c100 124 184 215.333 252 274c122 105.333 236.333 158 343 158c80 0 149 -30 207 -90c51.333 -52.667 77 -107.334 77 -164.001c0 -6 -11.667 -25.333 -35 -58
c-27.333 -38 -54.333 -70 -81 -96c28 -15.333 91.333 -23 190 -23h42v-274zM1153 375.001c0 44.667 -16.167 80.333 -48.5 107s-71.166 40 -116.499 40c-110.667 0 -229.334 -86 -356.001 -258c265.333 0 439 37 521 111zM1139 1032l-161 -152l-158 158l164 150z" />
    <glyph glyph-name="uFEC2" unicode="&#x637;" horiz-adv-x="1438" arabic-form="final" 
d="M1468 1l-73.001 0.00195312c-110 0 -211 53 -303 159c-164 -106 -367 -159 -609 -159c-117.333 0 -193.333 22.667 -228 68c-23.333 30.667 -58.333 132.667 -105 306h63c24 -45.333 62 -75.333 114 -90c32.667 -9.33301 83 -14 151 -14v193
c0 318.667 -36.667 562.667 -110 732l180 160l147 -290h-74v-636c145.333 186.667 294.333 280 447 280c76.667 0 144.334 -29 203.001 -87c53.333 -52.667 80 -106.334 80 -161.001c0 -32.667 -35.333 -84.334 -106 -155.001c34 -21.333 83 -32 147 -32h76v-274z
M1126 377.002c0 44.667 -16.167 80.333 -48.5 107s-71.166 40 -116.499 40c-110.667 0 -229.334 -86 -356.001 -258c265.333 0 439 37 521 111z" />
    <glyph glyph-name="uFEC3" unicode="&#x637;" horiz-adv-x="1044" arabic-form="initial" 
d="M1041 462c0 -26.667 -28.333 -73.332 -85 -139.999c-74 -87.333 -166.333 -158 -277 -212c-148.667 -72.667 -317.334 -109 -506.001 -109h-203v273h198v190c0 318.667 -36.667 562.667 -110 732l180 160l147 -290h-74v-636c145.333 186.667 294.333 280 447 280
c76.667 0 144.334 -29 203.001 -87c53.333 -52.667 80 -106.334 80 -161.001zM816 377.002c0 44.667 -16.168 80.333 -48.501 107s-71.166 40 -116.499 40c-62.667 0 -132 -32.333 -208 -97c-54 -46 -103.333 -99.667 -148 -161c265.333 0 439 37 521 111z" />
    <glyph glyph-name="uFEC4" unicode="&#x637;" horiz-adv-x="1130" arabic-form="medial" 
d="M1158 1l-73.001 0.00195312c-54.667 0 -114 18.333 -178 55c-55.333 32 -97 66.667 -125 104c-164 -106 -367 -159 -609 -159h-203v274h198v189c0 318.667 -36.667 562.667 -110 732l180 160l147 -290h-74v-636c145.333 186.667 294.333 280 447 280
c76.667 0 144.334 -29 203.001 -87c53.333 -52.667 80 -106.334 80 -161.001c0 -32.667 -35.333 -84.334 -106 -155.001c34 -21.333 83 -32 147 -32h76v-274zM815.999 377.002c0 44.667 -16.168 80.333 -48.501 107s-71.166 40 -116.499 40c-62.667 0 -132 -32.333 -208 -97
c-54 -46 -103.333 -99.667 -148 -161c265.333 0 439 37 521 111z" />
    <glyph glyph-name="uFEC6" unicode="&#x638;" horiz-adv-x="1438" arabic-form="final" 
d="M1468 1l-73.001 0.00195312c-110 0 -211 53 -303 159c-164 -106 -367 -159 -609 -159c-117.333 0 -193.333 22.667 -228 68c-23.333 30.667 -58.333 132.667 -105 306h63c24 -45.333 62 -75.333 114 -90c32.667 -9.33301 83 -14 151 -14v193
c0 318.667 -36.667 562.667 -110 732l180 160l147 -290h-74v-636c145.333 186.667 294.333 280 447 280c76.667 0 144.334 -29 203.001 -87c53.333 -52.667 80 -106.334 80 -161.001c0 -32.667 -35.333 -84.334 -106 -155.001c34 -21.333 83 -32 147 -32h76v-274z
M1126 377.002c0 44.667 -16.167 80.333 -48.5 107s-71.166 40 -116.499 40c-110.667 0 -229.334 -86 -356.001 -258c265.333 0 439 37 521 111zM1187 1044l-161 -152l-158 158l164 150z" />
    <glyph glyph-name="uFEC7" unicode="&#x638;" horiz-adv-x="1044" arabic-form="initial" 
d="M1041 462c0 -26.667 -28.333 -73.332 -85 -139.999c-74 -87.333 -166.333 -158 -277 -212c-148.667 -72.667 -317.334 -109 -506.001 -109h-203v273h198v190c0 318.667 -36.667 562.667 -110 732l180 160l147 -290h-74v-636c145.333 186.667 294.333 280 447 280
c76.667 0 144.334 -29 203.001 -87c53.333 -52.667 80 -106.334 80 -161.001zM816 377.002c0 44.667 -16.168 80.333 -48.501 107s-71.166 40 -116.499 40c-62.667 0 -132 -32.333 -208 -97c-54 -46 -103.333 -99.667 -148 -161c265.333 0 439 37 521 111zM876.999 1044
l-161 -152l-158 158l164 150z" />
    <glyph glyph-name="uFEC8" unicode="&#x638;" horiz-adv-x="1130" arabic-form="medial" 
d="M1158 1l-73.001 0.00195312c-54.667 0 -114 18.333 -178 55c-55.333 32 -97 66.667 -125 104c-164 -106 -367 -159 -609 -159h-203v274h198v189c0 318.667 -36.667 562.667 -110 732l180 160l147 -290h-74v-636c145.333 186.667 294.333 280 447 280
c76.667 0 144.334 -29 203.001 -87c53.333 -52.667 80 -106.334 80 -161.001c0 -32.667 -35.333 -84.334 -106 -155.001c34 -21.333 83 -32 147 -32h76v-274zM815.999 377.002c0 44.667 -16.168 80.333 -48.501 107s-71.166 40 -116.499 40c-62.667 0 -132 -32.333 -208 -97
c-54 -46 -103.333 -99.667 -148 -161c265.333 0 439 37 521 111zM876.998 1044l-161 -152l-158 158l164 150z" />
    <glyph glyph-name="uFECA" unicode="&#x639;" horiz-adv-x="1198" arabic-form="final" 
d="M1226 1l-73.001 0.00195312c-104 0 -188.667 39 -254 117c-4.66699 5.33301 -67.334 86.333 -188.001 243c-213.333 -134 -320 -273.333 -320 -418c0 -130.667 68 -224.667 204 -282c96.667 -40.667 220.667 -61 372 -61c88 0 168.667 6 242 18l-84 -131
c-152.667 -47.333 -302 -71 -448 -71c-135.333 0 -254 33 -356 99c-112.667 73.333 -169 169.333 -169 288c0 205.333 156.667 413.666 470 624.999c-63.333 60 -137.666 111.333 -222.999 154c94 138 211.667 207 353 207c176.667 0 265 -88 265 -264
c-45.333 -18.667 -111.666 -50.334 -198.999 -95.001c102 -103.333 207.667 -155 317 -155h91v-274z" />
    <glyph glyph-name="uFECB" unicode="&#x639;" horiz-adv-x="920" arabic-form="initial" 
d="M924 428l-116 -252c-131.333 -29.333 -305.333 -71.333 -522 -126c-130 -32.667 -214 -49 -252 -49h-64v274h149c18 0 55 3 111 9c-80 48.667 -120 118.667 -120 210c0 92 49.333 181.667 148 269c90.667 80.667 172 121 244 121c114 0 207.333 -62 280 -186
c12 -20.667 13 -31 3 -31c-5.33301 0 -14.333 2.33301 -27 7c-38.667 14 -86.667 21 -144 21c-122 0 -219.333 -27.667 -292 -83c14 -130 89 -224 225 -282z" />
    <glyph glyph-name="uFECC" unicode="&#x639;" horiz-adv-x="820" arabic-form="medial" 
d="M849 1h-82.001c-57.333 0 -116 16 -176 48c-78.667 42 -133 101.667 -163 179c-71.333 -151.333 -202.333 -227 -393 -227h-65v274h115c112.667 0 192 30.333 238 91c-58 57.333 -130.667 108.333 -218 153c96.667 138 214.334 207 353.001 207
c176.667 0 265 -88 265 -264c-44.667 -18.667 -108.667 -52.667 -192 -102c34.667 -56.667 111 -85 229 -85h89v-274z" />
    <glyph glyph-name="uFECE" unicode="&#x63a;" horiz-adv-x="1198" arabic-form="final" 
d="M1226 1l-73.001 0.00195312c-104 0 -188.667 39 -254 117c-4.66699 5.33301 -67.334 86.333 -188.001 243c-213.333 -134 -320 -273.333 -320 -418c0 -130.667 68 -224.667 204 -282c96.667 -40.667 220.667 -61 372 -61c88 0 168.667 6 242 18l-84 -131
c-152.667 -47.333 -302 -71 -448 -71c-135.333 0 -254 33 -356 99c-112.667 73.333 -169 169.333 -169 288c0 205.333 156.667 413.666 470 624.999c-63.333 60 -137.666 111.333 -222.999 154c94 138 211.667 207 353 207c176.667 0 265 -88 265 -264
c-45.333 -18.667 -111.666 -50.334 -198.999 -95.001c102 -103.333 207.667 -155 317 -155h91v-274zM852.999 1104l-161 -152l-158 158l164 150z" />
    <glyph glyph-name="uFECF" unicode="&#x63a;" horiz-adv-x="920" arabic-form="initial" 
d="M924 428l-116 -252c-131.333 -29.333 -305.333 -71.333 -522 -126c-130 -32.667 -214 -49 -252 -49h-64v274h149c18 0 55 3 111 9c-80 48.667 -120 118.667 -120 210c0 92 49.333 181.667 148 269c90.667 80.667 172 121 244 121c114 0 207.333 -62 280 -186
c12 -20.667 13 -31 3 -31c-5.33301 0 -14.333 2.33301 -27 7c-38.667 14 -86.667 21 -144 21c-122 0 -219.333 -27.667 -292 -83c14 -130 89 -224 225 -282zM633 1194l-161 -152l-158 158l164 150z" />
    <glyph glyph-name="uFED0" unicode="&#x63a;" horiz-adv-x="820" arabic-form="medial" 
d="M849 1h-82.001c-57.333 0 -116 16 -176 48c-78.667 42 -133 101.667 -163 179c-71.333 -151.333 -202.333 -227 -393 -227h-65v274h115c112.667 0 192 30.333 238 91c-58 57.333 -130.667 108.333 -218 153c96.667 138 214.334 207 353.001 207
c176.667 0 265 -88 265 -264c-44.667 -18.667 -108.667 -52.667 -192 -102c34.667 -56.667 111 -85 229 -85h89v-274zM602.999 1104l-161 -152l-158 158l164 150z" />
    </font>
</defs>
</svg>
